> 滨崎步<15th Anniversary Tour Best Live>出道15周年纪念巡回演
歌 手 : 滨崎步
主音唯一码 : lgych-00285
视频大小 : 40.2G主音网微信 : zhuyinwang01
创建时间 : 2018-09-10主音网QQ客服 :不在接受qq咨询,有事找微信。说明来意。
视频目录 : 日本演唱会
主音网邮箱 :bimuyu#zhuyin.com(请把#改成@)
主音唯一码
lgych-00285
文件大小
40.2G
百度网盘下载
提取码
mr29
文件解压密码
滨崎步<15th Anniversary Tour Best Live>出道15周年纪念巡回演 视频截图




















滨崎步<15th Anniversary Tour Best Live>出道15周年纪念巡回演 视频剧情截图
滨崎步<15th Anniversary Tour Best Live>出道15周年纪念巡回演 演唱会曲目介绍
滨崎步 15th Anniversary Tour Best Live 出道15周年纪念巡回演唱会【40.2G】1080P蓝光原盘
Ayumi Hamasaki - 15th Anniversary Tour Best Live


00.interlude
01.A Song for ××
02.Memorial address
03.Massive Trance Station
04.poker face
05.Fly high
06.HONEY
07.SHOW TIME
08.M
09.No way to say
10.You & Me
11.BLUE BIRD
12.innervisions
13.JEWEL
14.HEAVEN
15.ever free
16.Wake me up
17.Tell All
18.SURREAL ~ evolution ~ SURREAL
19.Voyage
20.teddy bear
21.Sunrise ~LOVE is ALL~
22.Boys & Girls
23.Who…
24.MY ALL
主音唯一码
lgych-00285
文件大小
40.2G
百度网盘下载
提取码
mr29
文件解压密码
滨崎步<15th Anniversary Tour Best Live>出道15周年纪念巡回演 演唱会视频参数信息
演唱会参数信息

DISC INFO:

Disc Title:     lgych-00285 滨崎步 Ayumi Hamasaki -  15th Anniversary Tour Best Live 出道15周年纪念巡回演唱会【40.2G】1080P蓝光原盘
Disc Size:      43,260,565,624 bytes
Protection:     AACS
BD-Java:        No
BDInfo:         0.5.8

PLAYLIST REPORT:

Name:                   00001.MPLS
Length:                 2:34:41.355 (h:m:s.ms)
Size:                   0 bytes
Total Bitrate:          0.00 Mbps

VIDEO:

Codec                   Bitrate             Description     
-----                   -------             -----------     
MPEG-4 AVC Video        0 kbps              1080p / 23.976 fps / 16:9 / High Profile 4.1

AUDIO:

Codec                           Language        Bitrate         Description     
-----                           --------        -------         -----------     
LPCM Audio                      Japanese        2304 kbps       2.0 / 48 kHz / 2304 kbps / 24-bit

FILES:

Name            Time In         Length          Size            Total Bitrate   
----            -------         ------          ----            -------------   
00001.M2TS      0:00:00.000     1:45:04.298     0               0               
00002.M2TS      1:45:04.298     0:38:24.343     0               0               
00003.M2TS      2:23:28.641     0:11:12.713     0               0               
为您推荐 滨崎步 相关的演唱会视频
主音唯一码
lgych-00285
文件大小
40.2G
百度网盘下载
提取码
mr29
文件解压密码
最新天气预报