> 滨崎步<Ayumi Hamasaki - Colours>蓝光专辑MV集合2014【21.4G】1
歌 手 : 滨崎步
主音唯一码 : lgych-00305
视频大小 : 21.4G主音网微信 : zhuyinwang01
创建时间 : 2018-09-10主音网QQ客服 :不在接受qq咨询,有事找微信。说明来意。
视频目录 : 日本演唱会
主音网邮箱 :bimuyu#zhuyin.com(请把#改成@)
主音唯一码
lgych-00305
文件大小
21.4G
百度网盘下载
提取码
avmz
文件解压密码
滨崎步<Ayumi Hamasaki - Colours>蓝光专辑MV集合2014【21.4G】1 视频截图












滨崎步<Ayumi Hamasaki - Colours>蓝光专辑MV集合2014【21.4G】1 视频剧情截图
滨崎步<Ayumi Hamasaki - Colours>蓝光专辑MV集合2014【21.4G】1 演唱会曲目介绍
滨崎步 Ayumi Hamasaki - Colours 蓝光专辑MV集合2014【21.4G】1080P蓝光原盘
Ayumi Hamasaki - Colours 滨崎步:CoLOURS (2014)[21.4]
曲目

01 Feel the love ["ayupan × Bloody Bunny" ver.] (video clip)
02 XOXO (video clip)
03 Angel (video clip)
04 Merry-go-round [Appearance by VERBAL ver.] (video clip)
05 Lelio (video clip)
06 Feel the love (making clip)
07 XOXO (making clip)
08 Angel (making clip)
09 Merry-go-round (making clip)
10 Lelio (making clip)
主音唯一码
lgych-00305
文件大小
21.4G
百度网盘下载
提取码
avmz
文件解压密码
滨崎步<Ayumi Hamasaki - Colours>蓝光专辑MV集合2014【21.4G】1 演唱会视频参数信息
演唱会参数信息

DISC INFO:

Disc Title:     lgych-00305 滨崎步 Ayumi Hamasaki - Colours 蓝光专辑MV集合2014【21.4G】1080P蓝光原盘
Disc Size:      23,046,883,560 bytes
Protection:     AACS
BD-Java:        No
BDInfo:         0.5.8

PLAYLIST REPORT:

Name:                   00001.MPLS
Length:                 1:27:35.082 (h:m:s.ms)
Size:                   0 bytes
Total Bitrate:          0.00 Mbps

VIDEO:

Codec                   Bitrate             Description     
-----                   -------             -----------     
MPEG-4 AVC Video        0 kbps              1080i / 29.970 fps / 16:9 / High Profile 4.1

AUDIO:

Codec                           Language        Bitrate         Description     
-----                           --------        -------         -----------     
LPCM Audio                      Japanese        1536 kbps       2.0 / 48 kHz / 1536 kbps / 16-bit

FILES:

Name            Time In         Length          Size            Total Bitrate   
----            -------         ------          ----            -------------   
00001.M2TS      0:00:00.000     0:05:32.031     0               0               
00002.M2TS      0:05:32.031     0:04:30.303     0               0               
00003.M2TS      0:10:02.335     0:03:47.260     0               0               
为您推荐 滨崎步 相关的演唱会视频
主音唯一码
lgych-00305
文件大小
21.4G
百度网盘下载
提取码
avmz
文件解压密码
最新天气预报