> 滨崎步<Ayumi Hamasaki PREMIUM SHOWCASE ~Feel the love~>日本
歌 手 : 滨崎步
主音唯一码 : lgych-00306
视频大小 : 41.6G主音网微信 : zhuyinwang01
创建时间 : 2018-09-10主音网QQ客服 :不在接受qq咨询,有事找微信。说明来意。
视频目录 : 日本演唱会
主音网邮箱 :bimuyu#zhuyin.com(请把#改成@)
主音唯一码
lgych-00306
文件大小
41.6G
百度网盘下载
提取码
whui
文件解压密码
滨崎步<Ayumi Hamasaki PREMIUM SHOWCASE ~Feel the love~>日本 视频截图
















滨崎步<Ayumi Hamasaki PREMIUM SHOWCASE ~Feel the love~>日本 视频剧情截图
滨崎步<Ayumi Hamasaki PREMIUM SHOWCASE ~Feel the love~>日本 演唱会曲目介绍
滨崎步 Ayumi Hamasaki PREMIUM SHOWCASE ~Feel the love~ 日本巡回演唱会2014【41.6G】1080P蓝光原盘
Ayumi hamasaki PREMIUM SHOWCASE ~Feel the love~ [滨崎步2014日本巡回演唱会][41.67] 
滨崎步 - ayumi hamasaki PREMIUM SHOWCASE ~Feel the love~
曲目

1. WHATEVER
2. Last angel
3. Magical Night
4. decision
5. NEVER EVER
6. Because of You
7. What is forever love
8. Starry night
9. TO BE
10. Hello new me
11. circus
12. Adagio for A
13. Angel
14. DJ TIME
15. Terminal
16. Connected
17. STEP you
18. XOXO
19. Jump!
20. Lelio
21. You & Me
22. Bold & Delicious
23. NOW & 4EVA
24. Boys & Girls
25. July 1st
26. Feel the love
主音唯一码
lgych-00306
文件大小
41.6G
百度网盘下载
提取码
whui
文件解压密码
滨崎步<Ayumi Hamasaki PREMIUM SHOWCASE ~Feel the love~>日本 演唱会视频参数信息
演唱会参数信息

DISC INFO:

Disc Title:     lgych-00306 滨崎步 Ayumi Hamasaki PREMIUM SHOWCASE ~Feel the love~ 日本巡回演唱会2014【41.6G】1080P蓝光原盘
Disc Size:      44,740,973,304 bytes
Protection:     AACS
BD-Java:        No
BDInfo:         0.5.8

PLAYLIST REPORT:

Name:                   00001.MPLS
Length:                 2:31:05.514 (h:m:s.ms)
Size:                   0 bytes
Total Bitrate:          0.00 Mbps

VIDEO:

Codec                   Bitrate             Description     
-----                   -------             -----------     
MPEG-4 AVC Video        0 kbps              1080p / 23.976 fps / 16:9 / High Profile 4.1

AUDIO:

Codec                           Language        Bitrate         Description     
-----                           --------        -------         -----------     
LPCM Audio                      Japanese        2304 kbps       2.0 / 48 kHz / 2304 kbps / 24-bit

FILES:

Name            Time In         Length          Size            Total Bitrate   
----            -------         ------          ----            -------------   
00002.M2TS      0:00:00.000     0:02:13.591     0               0               
00001.M2TS      0:02:13.591     2:19:47.379     0               0               
00003.M2TS      2:22:00.970     0:09:04.543     0               0               
为您推荐 滨崎步 相关的演唱会视频
主音唯一码
lgych-00306
文件大小
41.6G
百度网盘下载
提取码
whui
文件解压密码
最新天气预报