> 滨崎步<Ayumi Hamasaki ARENA TOUR 2015 A Cirque de Minuit>日
歌 手 : 滨崎步
主音唯一码 : lgych-00308
视频大小 : 37.6G主音网微信 : zhuyinwang01
创建时间 : 2018-09-10主音网QQ客服 :不在接受qq咨询,有事找微信。说明来意。
视频目录 : 日本演唱会
主音网邮箱 :bimuyu#zhuyin.com(请把#改成@)
主音唯一码
lgych-00308
文件大小
37.6G
百度网盘下载
提取码
vmgu
文件解压密码
滨崎步<Ayumi Hamasaki ARENA TOUR 2015 A Cirque de Minuit>日 视频截图






















滨崎步<Ayumi Hamasaki ARENA TOUR 2015 A Cirque de Minuit>日 视频剧情截图
滨崎步<Ayumi Hamasaki ARENA TOUR 2015 A Cirque de Minuit>日 演唱会曲目介绍
滨崎步 Ayumi Hamasaki ARENA TOUR 2015 A Cirque de Minuit 日本巡回演唱会【37.6G】1080P蓝光原盘
Ayumi hamasaki ARENA TOUR 2015 A Cirque de Minuit ~Mayonaka no Circus~ The FINAL
滨崎步2015日本巡回演唱会 ayumi hamasaki ARENA TOUR 2015][37.62] 
曲目

01 Duty
02 Pride
03 Microphone
04 Lost in Trance
05 GAME
06 my name's WOMEN
07 until that Day...
08 1 LOVE
09 WARNING
10 Diary
11 HAPPY ENDING
12 Secret
13 Last minute
14 Tears
15 A Song for XX
16 Out of control
17 WALTZ
18 Anything for You
19 forgiveness
20 progress
21 a Bell
22 Rule
23 Lady Dynamite
24 immature
25 evolution
26 Mirrorcle World
27 teddy bear
【アンコール】
28 Step by step
29 Movin' on without you
30 Sunrise ?LOVE is ALL? ? BLUE BIRD ? independent ? You & Me ? Greatful days ? blossom ? July 1st
31 Boys & Girls
32 The Show Must Go On
33 Who...
34 MY ALL
【Bonus Contents】
Tour Document
主音唯一码
lgych-00308
文件大小
37.6G
百度网盘下载
提取码
vmgu
文件解压密码
滨崎步<Ayumi Hamasaki ARENA TOUR 2015 A Cirque de Minuit>日 演唱会视频参数信息
演唱会参数信息

DISC INFO:

Disc Title:     lgych-00308 滨崎步 Ayumi Hamasaki ARENA TOUR 2015 A Cirque de Minuit 日本巡回演唱会【37.6G】1080P蓝光原盘
Disc Size:      40,391,316,684 bytes
Protection:     AACS
BD-Java:        No
BDInfo:         0.5.8

PLAYLIST REPORT:

Name:                   00001.MPLS
Length:                 3:31:59.832 (h:m:s.ms)
Size:                   0 bytes
Total Bitrate:          0.00 Mbps

VIDEO:

Codec                   Bitrate             Description     
-----                   -------             -----------     
MPEG-4 AVC Video        0 kbps              1080p / 23.976 fps / 16:9 / High Profile 4.1

AUDIO:

Codec                           Language        Bitrate         Description     
-----                           --------        -------         -----------     
LPCM Audio                      Japanese        2304 kbps       2.0 / 48 kHz / 2304 kbps / 24-bit

FILES:

Name            Time In         Length          Size            Total Bitrate   
----            -------         ------          ----            -------------   
00001.M2TS      0:00:00.000     2:15:03.136     0               0               
00002.M2TS      2:15:03.136     1:11:48.345     0               0               
00003.M2TS      3:26:51.482     0:05:08.349     0               0               
为您推荐 滨崎步 相关的演唱会视频
主音唯一码
lgych-00308
文件大小
37.6G
百度网盘下载
提取码
vmgu
文件解压密码
最新天气预报