> 滨崎步<Ayumi Hamasaki - FIVE>2011迷你FIVE专辑蓝光MV集合【18.
歌 手 : 滨崎步
主音唯一码 : lgych-00314
视频大小 : 18.7G主音网微信 : zhuyinwang01
创建时间 : 2018-09-10主音网QQ客服 :不在接受qq咨询,有事找微信。说明来意。
视频目录 : 日本演唱会
主音网邮箱 :bimuyu#zhuyin.com(请把#改成@)
主音唯一码
lgych-00314
文件大小
18.7G
百度网盘下载
提取码
5aw7
文件解压密码
滨崎步<Ayumi Hamasaki - FIVE>2011迷你FIVE专辑蓝光MV集合【18. 视频截图














滨崎步<Ayumi Hamasaki - FIVE>2011迷你FIVE专辑蓝光MV集合【18. 视频剧情截图
滨崎步<Ayumi Hamasaki - FIVE>2011迷你FIVE专辑蓝光MV集合【18. 演唱会曲目介绍
滨崎步 Ayumi Hamasaki - FIVE 2011迷你FIVE专辑蓝光MV集合【18.7G】1080P蓝光原盘
Ayumi Hamasaki - FIVE 滨崎步 迷你专辑FIVE[18.76]
滨崎步 迷你专辑FIVE (2011)

专辑曲目:
01.progress
02.ANother song
03.Why...
04.beloved
05.BRILLANTE

映像收录内容 [约58分收录]
01 progress (video clip)
02 ANother song feat. URATA NAOYA (video clip)
03 Why... feat. JUNO (video clip)
04 beloved (video clip)
05 BRILLANTE (video clip)
06 progress (making clip)
07 ANother song feat. URATA NAOYA (making clip)
08 Why... feat. JUNO (making clip)
09 beloved (making clip)
10 BRILLANTE (making clip)
主音唯一码
lgych-00314
文件大小
18.7G
百度网盘下载
提取码
5aw7
文件解压密码
滨崎步<Ayumi Hamasaki - FIVE>2011迷你FIVE专辑蓝光MV集合【18. 演唱会视频参数信息
演唱会参数信息

DISC INFO:

Disc Title:     lgych-00314 滨崎步 Ayumi Hamasaki - FIVE 2011迷你FIVE专辑蓝光MV集合【18.7G】1080P蓝光原盘
Disc Size:      20,144,667,928 bytes
Protection:     AACS
BD-Java:        Yes
BDInfo:         0.5.8

PLAYLIST REPORT:

Name:                   00100.MPLS
Length:                 0:58:00.176 (h:m:s.ms)
Size:                   0 bytes
Total Bitrate:          0.00 Mbps

VIDEO:

Codec                   Bitrate             Description     
-----                   -------             -----------     
MPEG-4 AVC Video        0 kbps              1080i / 29.970 fps / 16:9 / High Profile 4.1

AUDIO:

Codec                           Language        Bitrate         Description     
-----                           --------        -------         -----------     
LPCM Audio                      Japanese        1536 kbps       2.0 / 48 kHz / 1536 kbps / 16-bit

FILES:

Name            Time In         Length          Size            Total Bitrate   
----            -------         ------          ----            -------------   
10000.M2TS      0:00:00.000     0:00:17.684     0               0               
10001.M2TS      0:00:17.684     0:05:12.345     0               0               
10003.M2TS      0:05:30.029     0:05:18.484     0               0               
10005.M2TS      0:10:48.514     0:04:06.012     0               0               
为您推荐 滨崎步 相关的演唱会视频
主音唯一码
lgych-00314
文件大小
18.7G
百度网盘下载
提取码
5aw7
文件解压密码
最新天气预报