> 坂本真绫<Sakamoto Maaya Countdown Live 2012-2013 Tour Mitsub
歌 手 : 坂本真绫
主音唯一码 : lgych-00327
视频大小 : 41.5G主音网微信 : zhuyinwang01
创建时间 : 2018-09-10主音网QQ客服 :2305540263
视频目录 : 日本演唱会
主音网邮箱 :bimuyu#zhuyin.com(请把#改成@)
主音唯一码
lgych-00327
文件大小
41.5G
百度网盘下载
提取码
tvwe
文件解压密码
坂本真绫<Sakamoto Maaya Countdown Live 2012-2013 Tour Mitsub 视频截图
















坂本真绫<Sakamoto Maaya Countdown Live 2012-2013 Tour Mitsub 视频剧情截图
坂本真绫<Sakamoto Maaya Countdown Live 2012-2013 Tour Mitsub 演唱会曲目介绍
坂本真绫 Sakamoto Maaya Countdown Live 2012-2013 Tour Mitsubachi Final 东京跨年演唱会【41G】1080P蓝光原盘
坂本真绫2012-2013跨年演唱会 Maaya Sakamoto - COUNTDOWN LIVE 2012-2013[41.62 GB]
Sakamoto Maaya COUNTDOWN LIVE 2012-2013 - TOUR "Mitsubachi" FINAL [2013.06.12]
坂本真绫 - 坂本真绫 COUNTDOWN LIVE 2012 - 2013  TOUR"ミツバチ"FINAL )

曲目

01 OPENING
02 トライアングラー
03 DOWN TOWN
04 スピカ
05 MC1
06 雨が降る
07 おかえりなさい
08 モアザンワーズ
09 プラリネ
10 MC2
11 君に会いに行こう
12 パイロット
13 さいごの果実
14 バイク
15 Buddy
16 MC3
17 やさしさに包まれたなら
18 MC4
19 ミツバチと科学者
20 シマシマ
21 MC5
22 action!
23 Private Sky
24 Get No Satisfaction!
25 マジックナンバー~countdown edition
26 eternal return
27 MC6
28 風待ちジェット~mitsubachi edition
29 猫背
30 MC7
31 ループ
32 ポケットを空にして
33 ENCORE
34 A HAPPY NEW YEAR
35 約束はいらない
36 MC8
37 デコボコマーチ(隊列は君に続く)
38 ENDING
主音唯一码
lgych-00327
文件大小
41.5G
百度网盘下载
提取码
tvwe
文件解压密码
坂本真绫<Sakamoto Maaya Countdown Live 2012-2013 Tour Mitsub 演唱会视频参数信息
演唱会参数信息

DISC INFO:

Disc Title:     lgych-00327 坂本真绫 Sakamoto Maaya Countdown Live 2012-2013 Tour Mitsubachi Final 东京跨年演唱会【41G】1080P蓝光原盘
Disc Size:      44,689,281,277 bytes
Protection:     AACS
BD-Java:        No
BDInfo:         0.5.8

PLAYLIST REPORT:

Name:                   00001.MPLS
Length:                 2:40:41.832 (h:m:s.ms)
Size:                   0 bytes
Total Bitrate:          0.00 Mbps

VIDEO:

Codec                   Bitrate             Description     
-----                   -------             -----------     
MPEG-4 AVC Video        0 kbps              1080i / 29.970 fps / 16:9 / High Profile 4.1

AUDIO:

Codec                           Language        Bitrate         Description     
-----                           --------        -------         -----------     
LPCM Audio                      Japanese        2304 kbps       2.0 / 48 kHz / 2304 kbps / 24-bit
LPCM Audio                      Japanese        6912 kbps       5.1 / 48 kHz / 6912 kbps / 24-bit

FILES:

Name            Time In         Length          Size            Total Bitrate   
----            -------         ------          ----            -------------   
00003.M2TS      0:00:00.000     1:09:38.541     0               0               
00004.M2TS      1:09:38.541     1:10:36.065     0               0               
00005.M2TS      2:20:14.606     0:20:08.206     0               0               
00006.M2TS      2:40:22.813     0:00:19.019     0               0               
为您推荐 坂本真绫 相关的演唱会视频
主音唯一码
lgych-00327
文件大小
41.5G
百度网盘下载
提取码
tvwe
文件解压密码
最新天气预报