> 今井麻美<Asami Imai Music Video Collection 2009-2012>蓝光MV
歌 手 : 今井麻美,Asami Imai
主音唯一码 : lgych-00340
视频大小 : 14.6G主音网微信 : zhuyinwang01
创建时间 : 2018-09-10主音网QQ客服 :不在接受qq咨询,有事找微信。说明来意。
视频目录 : 日本演唱会
主音网邮箱 :bimuyu#zhuyin.com(请把#改成@)
主音唯一码
lgych-00340
文件大小
14.6G
百度网盘下载
提取码
fmck
文件解压密码
今井麻美<Asami Imai Music Video Collection 2009-2012>蓝光MV 视频截图














今井麻美<Asami Imai Music Video Collection 2009-2012>蓝光MV 视频剧情截图
今井麻美<Asami Imai Music Video Collection 2009-2012>蓝光MV 演唱会曲目介绍
今井麻美 Asami Imai Music Video Collection 2009-2012 蓝光MV和LIVE精选合集2013【14.6G】1080P蓝光原盘

曲目

1. Strawberry ~甘く切ない涙~ (Music Video)
2. シャングリラ (Music Video)
3. COLOR SANCTUARY (Music Video)
4. 花の咲く場所 (Music Video)
5. Aroma of happiness (Music Video)
6. Hasta La Vista (Music Video) (ショートサイズ)
7. Limited Love (Music Video)
8. Precious Sounds ~風が残していった~ (Music Video)

9. 今井麻美 Special Comment
10. PSP用ソフト『コープスパーティー ブラッドカバー リピーティッドフィアー』OPムービー
11. PSP用ソフト『コープスパーティー ブック オブ シャドウ』OPムービー
12. PSP用ソフト「コープスパーティー -THE ANTHOLOGY- サチコの恋愛遊戯Hysteric Birthday 2U」OPムービー
13. COLOR SANCTUARY CM映像
14. Aroma of happiness CM映像
15. Precious Sounds CM映像
16. Hasta La Vista (Music Video Making)
主音唯一码
lgych-00340
文件大小
14.6G
百度网盘下载
提取码
fmck
文件解压密码
今井麻美<Asami Imai Music Video Collection 2009-2012>蓝光MV 演唱会视频参数信息
演唱会参数信息

DISC INFO:

Disc Title:     lgych-00340 今井麻美 Asami Imai Music Video Collection 2009-2012 蓝光MV和LIVE精选合集2013【14.6G】1080P蓝光原盘
Disc Size:      15,749,681,069 bytes
Protection:     AACS
BD-Java:        No
BDInfo:         0.5.8

PLAYLIST REPORT:

Name:                   00000.MPLS
Length:                 0:48:29.773 (h:m:s.ms)
Size:                   0 bytes
Total Bitrate:          0.00 Mbps

VIDEO:

Codec                   Bitrate             Description     
-----                   -------             -----------     
MPEG-4 AVC Video        0 kbps              1080i / 29.970 fps / 16:9 / High Profile 4.1

AUDIO:

Codec                           Language        Bitrate         Description     
-----                           --------        -------         -----------     
LPCM Audio                      Japanese        1536 kbps       2.0 / 48 kHz / 1536 kbps / 16-bit
LPCM Audio                      Japanese        1536 kbps       2.0 / 48 kHz / 1536 kbps / 16-bit

FILES:

Name            Time In         Length          Size            Total Bitrate   
----            -------         ------          ----            -------------   
00000.M2TS      0:00:00.000     0:03:45.024     0               0               
00001.M2TS      0:03:45.024     0:05:19.319     0               0               
00002.M2TS      0:09:04.343     0:05:41.341     0               0               
00003.M2TS      0:14:45.684     0:05:04.304     0               0               
为您推荐 今井麻美,Asami Imai 相关的演唱会视频
主音唯一码
lgych-00340
文件大小
14.6G
百度网盘下载
提取码
fmck
文件解压密码
最新天气预报