> 中岛美嘉<Mika Nakashima Concert Tour 2009 Trust Our Voice>日
歌 手 : 中岛美嘉,Mika Nakashima
主音唯一码 : lgych-00355
视频大小 : 39.4G主音网微信 : zhuyinwang01
创建时间 : 2018-09-10主音网QQ客服 :不在接受qq咨询,有事找微信。说明来意。
视频目录 : 日本演唱会
主音网邮箱 :bimuyu#zhuyin.com(请把#改成@)
主音唯一码
lgych-00355
文件大小
39.4G
百度网盘下载
提取码
sw5n
文件解压密码
中岛美嘉<Mika Nakashima Concert Tour 2009 Trust Our Voice>日 视频截图
















中岛美嘉<Mika Nakashima Concert Tour 2009 Trust Our Voice>日 视频剧情截图
中岛美嘉<Mika Nakashima Concert Tour 2009 Trust Our Voice>日 演唱会曲目介绍
中岛美嘉 Mika Nakashima Concert Tour 2009 Trust Our Voice 日本巡回演唱会【39.4G】1080P蓝光原盘
中岛美嘉2009巡演 Mika Nakashima - CONCERT TOUR 2009 - TRUST OUR VOICE][2009.12.02]

曲目

1. GAME
2. SHUT UP
3. LIFE
4. FOCUS
5. Helpless Rain
6. Love Addict
7. 永远の诗
8. あなたがいるから
9. MY GENTLEMAN
10. 声
11. ORION
12. 见えない星
13. WILL|STARS
14. SAKURA~花霞~
15. TRUST YOUR VOICE
16. ALL HANDS TOGETHER
17. conFusiOn
18. LOVE NO CRY
19. I DON’T KNOW
20. Over Load
21. 雪の华
22. A MIRACLE FOR YOU
23. ENDROLL 
主音唯一码
lgych-00355
文件大小
39.4G
百度网盘下载
提取码
sw5n
文件解压密码
中岛美嘉<Mika Nakashima Concert Tour 2009 Trust Our Voice>日 演唱会视频参数信息
演唱会参数信息

DISC INFO:

Disc Title:     lgych-00355 中岛美嘉 Mika Nakashima Concert Tour 2009 Trust Our Voice 日本巡回演唱会【39.4G】1080P蓝光原盘
Disc Size:      42,411,384,714 bytes
Protection:     AACS
BD-Java:        No
BDInfo:         0.5.8

PLAYLIST REPORT:

Name:                   00001.MPLS
Length:                 2:22:33.211 (h:m:s.ms)
Size:                   0 bytes
Total Bitrate:          0.00 Mbps

VIDEO:

Codec                   Bitrate             Description     
-----                   -------             -----------     
MPEG-4 AVC Video        0 kbps              1080i / 29.970 fps / 16:9 / High Profile 4.1

AUDIO:

Codec                           Language        Bitrate         Description     
-----                           --------        -------         -----------     
LPCM Audio                      Japanese        4608 kbps       2.0 / 96 kHz / 4608 kbps / 24-bit
Dolby TrueHD Audio              Japanese        0 kbps          5.1 / 96 kHz / 16-bit (AC3 Embedded: 5.1 / 48 kHz / 640 kbps)

FILES:

Name            Time In         Length          Size            Total Bitrate   
----            -------         ------          ----            -------------   
00002.M2TS      0:00:00.000     1:09:41.844     0               0               
00003.M2TS      1:09:41.844     1:12:44.360     0               0               
00007.M2TS      2:22:26.204     0:00:07.006     0               0               
为您推荐 中岛美嘉,Mika Nakashima 相关的演唱会视频
主音唯一码
lgych-00355
文件大小
39.4G
百度网盘下载
提取码
sw5n
文件解压密码
最新天气预报