> 欧美热门歌曲排行榜精选<US Billboard Charts 2012-2013>精品欧
歌 手 : 詹妮弗洛佩兹,泰勒斯威夫特,麦当娜,Madonna,布兰妮,单向乐队
主音唯一码 : lgych-00362
视频大小 : 21.8G主音网微信 : zhuyinwang01
创建时间 : 2018-09-10主音网QQ客服 :不在接受qq咨询,有事找微信。说明来意。
视频目录 : 欧美演唱会
主音网邮箱 :bimuyu#zhuyin.com(请把#改成@)
主音唯一码
lgych-00362
文件大小
21.8G
百度网盘下载
提取码
bu4t
文件解压密码
欧美热门歌曲排行榜精选<US Billboard Charts 2012-2013>精品欧 视频截图




















欧美热门歌曲排行榜精选<US Billboard Charts 2012-2013>精品欧 视频剧情截图
欧美热门歌曲排行榜精选<US Billboard Charts 2012-2013>精品欧 演唱会曲目介绍
欧美热门歌曲排行榜精选 US Billboard Charts 2012-2013 精品欧美MV.02辑【21.8G】1080P蓝光原盘
美国公告牌音乐排行榜

曲目

01. Work - Iggy Azalea
02. Feel This Moment - Pitbull
03. 22 - Taylor Swift
04. French Montana - Freaks
05. Up All Night - Cruzmatik
06. Krewella - Alive
07. He Loves To Make Me Cry - Kristen Kelly
08. Run Dat Back - Jadagrace
09. Mirrors - Justin Timberlake
10. Where You Are - Jay Sean
11. Tonight - Jessica Sanchez
12. One Way Or Another  - One Direction
13. Scream & Shout - will.i.am
14. She Said OK - Big Boi
15. Don't Wake Me Up - Chris Brown
16. I Won't Give Up - Jason Mraz
17. On The Floor - Jennifer Lopez
18. Turn Up The Radio - Madonna
19. Picking Up The Pieces - Paloma Faith
主音唯一码
lgych-00362
文件大小
21.8G
百度网盘下载
提取码
bu4t
文件解压密码
欧美热门歌曲排行榜精选<US Billboard Charts 2012-2013>精品欧 演唱会视频参数信息
演唱会参数信息

DISC INFO:

Disc Title:     lgych-00362 欧美热门歌曲排行榜精选 US Billboard Charts 2012-2013 精品欧美MV.02辑【21.8G】1080P蓝光原盘
Disc Size:      23,442,166,894 bytes
Protection:     AACS
BD-Java:        No
BDInfo:         0.5.8

PLAYLIST REPORT:

Name:                   00000.MPLS
Length:                 1:20:06.060 (h:m:s.ms)
Size:                   0 bytes
Total Bitrate:          0.00 Mbps

VIDEO:

Codec                   Bitrate             Description     
-----                   -------             -----------     
MPEG-2 Video            0 kbps              1080p / 23.976 fps / 16:9

AUDIO:

Codec                           Language        Bitrate         Description     
-----                           --------        -------         -----------     
LPCM Audio                      English         1536 kbps       2.0 / 48 kHz / 1536 kbps / 16-bit

FILES:

Name            Time In         Length          Size            Total Bitrate   
----            -------         ------          ----            -------------   
00051.M2TS      0:00:00.000     0:03:47.184     0               0               
00052.M2TS      0:03:47.184     0:03:56.110     0               0               
00053.M2TS      0:07:43.295     0:04:02.950     0               0               
为您推荐 詹妮弗洛佩兹,泰勒斯威夫特,麦当娜,Madonna,布兰妮,单向乐队 相关的演唱会视频
主音唯一码
lgych-00362
文件大小
21.8G
百度网盘下载
提取码
bu4t
文件解压密码
最新天气预报