> 张敬轩<酷爱张敬轩>2008香港红馆演唱会【46G】1080P蓝光原盘
歌 手 : 张敬轩,王菀之,谭咏麟,陈奕迅,谢安琪,邓健泓,关楚耀
主音唯一码 : lgych-00373
视频大小 : 46G主音网微信 : zhuyinwang01
创建时间 : 2018-09-10主音网QQ客服 :不在接受qq咨询,有事找微信。说明来意。
视频目录 : 中国香港演唱会
主音网邮箱 :bimuyu#zhuyin.com(请把#改成@)
主音唯一码
lgych-00373
文件大小
46G
百度网盘下载
提取码
f269
文件解压密码
张敬轩<酷爱张敬轩>2008香港红馆演唱会【46G】1080P蓝光原盘 视频截图


















张敬轩<酷爱张敬轩>2008香港红馆演唱会【46G】1080P蓝光原盘 视频剧情截图
张敬轩<酷爱张敬轩>2008香港红馆演唱会【46G】1080P蓝光原盘 演唱会曲目介绍
张敬轩<酷爱张敬轩>2008香港红馆演唱会【46G】1080P蓝光原盘

曲目

01. Overture
02. 迷失表参道
03. 透露
04. 追风筝的孩子
05. 断点 (国)
06. 老了十岁
07. 过云雨 (国)
08. 骚灵情歌
09. 春天 (国)
10. 明了 (国)
11. 手望 (合唱) (王菀之)
12. 巴黎没有摩天轮 (王菀之)
13. Boys and Girls
14. 释放 (国)
15. 孤单公园
16. 两座位跑车
17. 遇见神
18. Blessing
19. 余震 (Funky version) (合唱) (关楚耀)
20. 你当我甚么 (关楚耀)
21. 朋友二号 (合唱) (邓健泓)
22. On Fire (Have You Ever?) (国)
23. 酷爱
24. 锺无艳 (合唱) (谢安琪)
25. 陈百强 Medley: i) 偏偏喜欢你 ii) 摘星
26. 幸福摩天轮 (合唱) (陈奕迅)
27. 夕阳无限好 (陈奕迅)
28. 幻影 (合唱) (谭咏麟)
29. 爱在深秋 (合唱) (谭咏麟)
30. 遥吻
31. 笑忘书
32. 我的天
33. 余震
34. Hurt So Bad (国)
35. My Way (国)
主音唯一码
lgych-00373
文件大小
46G
百度网盘下载
提取码
f269
文件解压密码
张敬轩<酷爱张敬轩>2008香港红馆演唱会【46G】1080P蓝光原盘 演唱会视频参数信息
演唱会参数信息

DISC INFO:

Disc Title:     张敬轩<酷爱张敬轩>2008香港红馆演唱会【46G】1080P蓝光原盘
Disc Size:      49,413,464,563 bytes
Protection:     AACS
BD-Java:        No
BDInfo:         0.5.8

PLAYLIST REPORT:

Name:                   00001.MPLS
Length:                 2:52:22.632 (h:m:s.ms)
Size:                   0 bytes
Total Bitrate:          0.00 Mbps

VIDEO:

Codec                   Bitrate             Description     
-----                   -------             -----------     
MPEG-4 AVC Video        0 kbps              1080i / 29.970 fps / 16:9 / High Profile 4.1

AUDIO:

Codec                           Language        Bitrate         Description     
-----                           --------        -------         -----------     
LPCM Audio                      Chinese         4608 kbps       5.1 / 48 kHz / 4608 kbps / 16-bit
DTS-HD Master Audio             Chinese         0 kbps          5.1 / 96 kHz / 24-bit (DTS Core: 6.1 / 48 kHz / 1509 kbps / 24-bit)
Dolby Digital Audio             Chinese         384 kbps        5.1 / 48 kHz / 384 kbps / DN -4dB
Dolby Digital Audio             Chinese         192 kbps        2.0 / 48 kHz / 192 kbps / DN -4dB

SUBTITLES:

Codec                           Language        Bitrate         Description     
-----                           --------        -------         -----------     
Presentation Graphics           Chinese         0.000 kbps                      
Presentation Graphics           Chinese         0.000 kbps                      

FILES:

Name            Time In         Length          Size            Total Bitrate   
----            -------         ------          ----            -------------   
00003.M2TS      0:00:00.000     0:54:00.237     0               0               
00004.M2TS      0:54:00.237     0:54:17.254     0               0               
00005.M2TS      1:48:17.491     1:04:05.141     0               0               
为您推荐 张敬轩,王菀之,谭咏麟,陈奕迅,谢安琪,邓健泓,关楚耀 相关的演唱会视频
主音唯一码
lgych-00373
文件大小
46G
百度网盘下载
提取码
f269
文件解压密码
最新天气预报