> 岛谷瞳<Hitomi Shimatani 5th Anniversary SUPER BEST>15周年记
歌 手 : 岛谷瞳
主音唯一码 : lgych-00383
视频大小 : 55.6G主音网微信 : zhuyinwang01
创建时间 : 2018-09-10主音网QQ客服 :不在接受qq咨询,有事找微信。说明来意。
视频目录 : 日本演唱会
主音网邮箱 :bimuyu#zhuyin.com(请把#改成@)
主音唯一码
lgych-00383
文件大小
55.6G
百度网盘下载
提取码
p38k
文件解压密码
岛谷瞳<Hitomi Shimatani 5th Anniversary SUPER BEST>15周年记 视频截图












岛谷瞳<Hitomi Shimatani 5th Anniversary SUPER BEST>15周年记 视频剧情截图
岛谷瞳<Hitomi Shimatani 5th Anniversary SUPER BEST>15周年记 演唱会曲目介绍
岛谷瞳 Hitomi Shimatani 5th Anniversary SUPER BEST 15周年记念专辑演唱会+MV精选合集2013【55.6G】1080P蓝光原盘.双碟

曲目

D1

Hitomi Shimatani Live 2008 Flare at なんばHatch
OPENING SE
Perseus~ペルセウス~
Viola
深紅
Destiny-太陽の花-
WAKE YOU UP
Start
Heavenly
シャンティ
パピヨン~papillon~
YUME日和
Dear…
亜麻色の髪の乙女
解放区
いつの日にか…
Shake it up !
太陽のFlare
Garnet Moon
Falco-ファルコ-
ANGELUS-アンジェラス-
SMILES
雨の日には雨の中を風の日には風の中を
Neva Eva
Marvelous

D2

あなたを胸に生きてく(2013年新曲)(MUSIC VIDEO)
解放区(MUSIC VIDEO)
パピヨン ~papillom~(MUSIC VIDEO)
市場にいこう(MUSIC VIDEO)
やさしいキスの見つけ方(MUSIC VIDEO)
シャンティ(MUSIC VIDEO)
亜麻色の髪の乙女(MUSIC VIDEO)
いつの日にか…(MUSIC VIDEO)
赤い砂漠の伝説(MUSIC VIDEO)
元気を出して(MUSIC VIDEO)
Perseus -ペルセウス-(MUSIC VIDEO)
YUME日和(MUSIC VIDEO)
Viola(MUSIC VIDEO)
Jewel of kiss(MUSIC VIDEO)
ANGELUS -アンジェラス-(MUSIC VIDEO)
追憶+LOVE LETTER(MUSIC VIDEO)
Garnet Moon(MUSIC VIDEO)
I will(MUSIC VIDEO)
~Mermaid~(MUSIC VIDEO)
Falco -ファルコ-(MUSIC VIDEO)
真昼の月(MUSIC VIDEO)
春待人(MUSIC VIDEO)
Camellia -カメリア-(MUSIC VIDEO)
Destiny -太陽の花-(MUSIC VIDEO)
恋水 -tears of love-(MUSIC VIDEO)
PASIO~パッシオ(MUSIC VIDEO)
Dragonfly(MUSIC VIDEO)
Neva Eva(MUSIC VIDEO)
深紅(MUSIC VIDEO)
Ramblin'(MUSIC VIDEO)
泣きたいなら(MUSIC VIDEO)
WAKE YOU UP(MUSIC VIDEO)※1コーラス
雨の日には 雨の中を 風の日には 風の中を(MUSIC VIDEO)
Marvelous(MUSIC VIDEO)※1コーラス
レイニーブルー(MUSIC VIDEO)
SMILES(MUSIC VIDEO)
長い間(MUSIC VIDEO)
君がいるだけで(MUSIC VIDEO)
GET BACK IN LOVE(MUSIC VIDEO)
真夜中のギター(MUSIC VIDEO)
簡単に言えたなら(MUSIC VIDEO)
故郷(MUSIC VIDEO)
主音唯一码
lgych-00383
文件大小
55.6G
百度网盘下载
提取码
p38k
文件解压密码
岛谷瞳<Hitomi Shimatani 5th Anniversary SUPER BEST>15周年记 演唱会视频参数信息
演唱会参数信息

DISC INFO:

Disc Title:     lgych-00383 岛谷瞳 Hitomi Shimatani 5th Anniversary SUPER BEST 15周年记念专辑演唱会+MV精选合集2013【55.6G】1080P蓝光原盘.双碟
Disc Size:      39,995,677,192 bytes
Protection:     AACS
BD-Java:        No
BDInfo:         0.5.8

PLAYLIST REPORT:

Name:                   00001.MPLS
Length:                 3:29:55.616 (h:m:s.ms)
Size:                   0 bytes
Total Bitrate:          0.00 Mbps

VIDEO:

Codec                   Bitrate             Description     
-----                   -------             -----------     
MPEG-4 AVC Video        0 kbps              1080i / 29.970 fps / 16:9 / High Profile 4.1

AUDIO:

Codec                           Language        Bitrate         Description     
-----                           --------        -------         -----------     
LPCM Audio                      Japanese        1536 kbps       2.0 / 48 kHz / 1536 kbps / 16-bit

FILES:

Name            Time In         Length          Size            Total Bitrate   
----            -------         ------          ----            -------------   
00001.M2TS      0:00:00.000     0:06:20.380     0               0               
00002.M2TS      0:06:20.380     0:04:56.596     0               0               
00003.M2TS      0:11:16.976     0:04:32.438     0               0               
00004.M2TS      0:15:49.415     0:04:22.929     0               0               
为您推荐 岛谷瞳 相关的演唱会视频
主音唯一码
lgych-00383
文件大小
55.6G
百度网盘下载
提取码
p38k
文件解压密码
最新天气预报