> Juice=Juice<First Squeeze!>专辑蓝光MV+LIVE合集2015【36.2G】1
歌 手 : JuiceJuice,早安家族,宫崎由加,金泽朋子,高木纱友希,植村亚加莉
主音唯一码 : lgych-00385
视频大小 : 36.2G主音网微信 : zhuyinwang01
创建时间 : 2018-09-10主音网QQ客服 :不在接受qq咨询,有事找微信。说明来意。
视频目录 : 日本演唱会
主音网邮箱 :bimuyu#zhuyin.com(请把#改成@)
主音唯一码
lgych-00385
文件大小
36.2G
百度网盘下载
提取码
k4rx
文件解压密码
Juice=Juice<First Squeeze!>专辑蓝光MV+LIVE合集2015【36.2G】1 视频截图














Juice=Juice<First Squeeze!>专辑蓝光MV+LIVE合集2015【36.2G】1 视频剧情截图
Juice=Juice<First Squeeze!>专辑蓝光MV+LIVE合集2015【36.2G】1 演唱会曲目介绍
Juice=Juice First Squeeze! 专辑蓝光MV+LIVE合集2015【36.2G】1080P蓝光原盘

曲目

1. ロマンスの途中
2. 私が言う前に抱きしめなきゃね (MEMORIAL EDIT)
3. 五月雨美女がさ乱れる (MEMORIAL EDIT)
4. イジワルしないで 抱きしめてよ
5. 初めてを経験中
6. 裸の裸の裸のKISS
7. アレコレしたい!
8. ブラックバタフライ
9. 風に吹かれて
10. 背伸び
11. 伊達じゃないよ うちの人生は
12. Wonderful World
13. Ca va ? Ca va ? (サヴァサヴァ)
14. ロマンスの途中 -Dance Shot Ver.II-
15. ロマンスの途中 -Close-up Ver.-
16. 私が言う前に抱きしめなきゃね (MEMORIAL EDIT) -Dance Shot Ver.-
17. 私が言う前に抱きしめなきゃね (MEMORIAL EDIT) -Dance Shot Ver.II-
18. 五月雨美女がさ乱れる (MEMORIAL EDIT) -Dance Shot Ver.II- 
19. 五月雨美女がさ乱れる (MEMORIAL EDIT) -Close-up Ver.- 
20. イジワルしないで 抱きしめてよ (KYAST Dance Shot Ver.)
21. イジワルしないで 抱きしめてよ (KYAST Dance Shot Ver.II) 
22. 初めてを経験中 (Dance Shot Ver.II)
23. 裸の裸の裸のKISS (Dance Shot Ver.II) 
24. アレコレしたい! (Dance Shot Ver.II) 
25. ブラックバタフライ (Close-up Ver.)
26. 風に吹かれて (Close-up Ver.) 
27. 背伸び (Dance Shot Ver.II)
28. 伊達じゃないよ うちの人生は (Close-up Ver.)
29. Wonderful World (Close-up Ver.) 
30. Ca va ? Ca va ? (サヴァサヴァ) (Close-up Ver.) 
主音唯一码
lgych-00385
文件大小
36.2G
百度网盘下载
提取码
k4rx
文件解压密码
Juice=Juice<First Squeeze!>专辑蓝光MV+LIVE合集2015【36.2G】1 演唱会视频参数信息
演唱会参数信息

DISC INFO:

Disc Title:     lgych-00385 Juice=Juice First Squeeze! 专辑蓝光MV+LIVE合集2015【36.2G】1080P蓝光原盘
Disc Size:      38,891,318,764 bytes
Protection:     AACS
BD-Java:        No
BDInfo:         0.5.8

PLAYLIST REPORT:

Name:                   00002.MPLS
Length:                 1:13:28.170 (h:m:s.ms)
Size:                   0 bytes
Total Bitrate:          0.00 Mbps

VIDEO:

Codec                   Bitrate             Description     
-----                   -------             -----------     
MPEG-4 AVC Video        0 kbps              1080i / 29.970 fps / 16:9 / High Profile 4.1

AUDIO:

Codec                           Language        Bitrate         Description     
-----                           --------        -------         -----------     
LPCM Audio                      Japanese        2304 kbps       2.0 / 48 kHz / 2304 kbps / 24-bit

FILES:

Name            Time In         Length          Size            Total Bitrate   
----            -------         ------          ----            -------------   
00017.M2TS      0:00:00.000     0:05:07.306     0               0               
00018.M2TS      0:05:07.306     0:05:07.306     0               0               
00019.M2TS      0:10:14.613     0:04:21.628     0               0               
00020.M2TS      0:14:36.242     0:04:21.628     0               0               
00021.M2TS      0:18:57.870     0:04:18.925     0               0               
00022.M2TS      0:23:16.795     0:04:19.525     0               0               
为您推荐 JuiceJuice,早安家族,宫崎由加,金泽朋子,高木纱友希,植村亚加莉 相关的演唱会视频
主音唯一码
lgych-00385
文件大小
36.2G
百度网盘下载
提取码
k4rx
文件解压密码
最新天气预报