> 中林芽依<May'n Special Concert BD BIG WAAAAAVE>日本武道馆演
歌 手 : 中林芽依,Mayn
主音唯一码 : lgych-00406
视频大小 : 39.2G主音网微信 : zhuyinwang01
创建时间 : 2018-09-10主音网QQ客服 :2305540263
视频目录 : 日本演唱会
主音网邮箱 :bimuyu#zhuyin.com(请把#改成@)
主音唯一码
lgych-00406
文件大小
39.2G
百度网盘下载
提取码
wsvg
文件解压密码
中林芽依<May'n Special Concert BD BIG WAAAAAVE>日本武道馆演 视频截图
















中林芽依<May'n Special Concert BD BIG WAAAAAVE>日本武道馆演 视频剧情截图
中林芽依<May'n Special Concert BD BIG WAAAAAVE>日本武道馆演 演唱会曲目介绍
中林芽依 May'n Special Concert BD BIG WAAAAAVE 日本武道馆演唱会2010【39.2G】1080P蓝光原盘

演唱会曲目

01. OPENING
02. ユニバーサル バニー
03. Get Ready
04. What'bout my star
05. MC 1
06. ライオン -May'n Ver.-
07. Band Time
08. h e me h e you!
09. standing bird
10. Glorious Heart
11. MC 2
12. 会えないとき
13. MC 3
14. my teens, my tears
15. Dancers Time 1
16. YOUR ROCK
17. pink monsoon
18. Let Me Be Myself
19. イゾラド
20. ダイアモンド クレバス
21. Dancers Time 2
22. XYZ
23. パラノイア
24. May'n Space
25. MC 4
26. オベリスク
27. ノーザンクロス
28. キミシニタモウコトナカレ
29. Welcome To My FanClub's Night! -Styles ver.-
30. 射手座 午後九時Don't be late
31. Deep Breathing
32. ENDING
主音唯一码
lgych-00406
文件大小
39.2G
百度网盘下载
提取码
wsvg
文件解压密码
中林芽依<May'n Special Concert BD BIG WAAAAAVE>日本武道馆演 演唱会视频参数信息
演唱会参数信息

DISC INFO:

Disc Title:     lgych-00406 中林芽依 May'n Special Concert BD BIG WAAAAAVE 日本武道馆演唱会2010【39.2G】1080P蓝光原盘
Disc Size:      42,095,677,484 bytes
Protection:     AACS
BD-Java:        No
BDInfo:         0.5.8

PLAYLIST REPORT:

Name:                   00001.MPLS
Length:                 2:33:53.223 (h:m:s.ms)
Size:                   0 bytes
Total Bitrate:          0.00 Mbps

VIDEO:

Codec                   Bitrate             Description     
-----                   -------             -----------     
MPEG-4 AVC Video        0 kbps              1080i / 29.970 fps / 16:9 / High Profile 4.1

AUDIO:

Codec                           Language        Bitrate         Description     
-----                           --------        -------         -----------     
LPCM Audio                      Japanese        2304 kbps       2.0 / 48 kHz / 2304 kbps / 24-bit

FILES:

Name            Time In         Length          Size            Total Bitrate   
----            -------         ------          ----            -------------   
00002.M2TS      0:00:00.000     2:00:10.703     0               0               
00003.M2TS      2:00:10.703     0:33:16.494     0               0               
00004.M2TS      2:33:27.197     0:00:26.025     0               0               
为您推荐 中林芽依,Mayn 相关的演唱会视频
主音唯一码
lgych-00406
文件大小
39.2G
百度网盘下载
提取码
wsvg
文件解压密码
最新天气预报