> 花泽香菜<Hanazawa Kana Film Documentaire de claire>专辑MV合
歌 手 : 花泽香菜,HanazawaKana
主音唯一码 : lgych-00408
视频大小 : 54.5G主音网微信 : zhuyinwang01
创建时间 : 2018-09-10主音网QQ客服 :不在接受qq咨询,有事找微信。说明来意。
视频目录 : 日本演唱会
主音网邮箱 :bimuyu#zhuyin.com(请把#改成@)
主音唯一码
lgych-00408
文件大小
54.5G
百度网盘下载
提取码
e2m4
文件解压密码
花泽香菜<Hanazawa Kana Film Documentaire de claire>专辑MV合 视频截图
















花泽香菜<Hanazawa Kana Film Documentaire de claire>专辑MV合 视频剧情截图
花泽香菜<Hanazawa Kana Film Documentaire de claire>专辑MV合 演唱会曲目介绍
花泽香菜 Hanazawa Kana Film Documentaire de claire 专辑MV合集+东京演唱会2013【54.5G】1080P蓝光原盘.双碟

演唱会曲目

D.1

1. opening
2. Ring a Bell
3. 青い鳥
4. 星空☆ディスティネーション
5. シグナルは恋ゴコロ
6. 初恋ノオト
7. 裸足のvacation!!
8. CALL ME EVERYDAY
9. too late for chocolate? (Instrumental)
10. happy endings
11. Just The Way You Are
12. ライブラリーで恋をして!
13. スタッカート
14. 眠るサカナ
15. melody
16. 新しい世界の歌
17. Silent Snow
18. Saturday Night Musical? (EN)
19. おやすみ、また明日 (EN)
20. あるいていこう (EN)
21. ending

D.2

1. 星空☆ディスティネーション (Music clip)
2. 初恋ノオト (Music clip)
3. happy endings (Music clip)
4. Silent Snow (Music clip)
主音唯一码
lgych-00408
文件大小
54.5G
百度网盘下载
提取码
e2m4
文件解压密码
花泽香菜<Hanazawa Kana Film Documentaire de claire>专辑MV合 演唱会视频参数信息
演唱会参数信息

DISC INFO:

Disc Title:     lgych-00408 花泽香菜 Hanazawa Kana Film Documentaire de claire 专辑MV合集+东京演唱会2013【54.5G】1080P蓝光原盘.双碟
Disc Size:      47,554,854,460 bytes
Protection:     AACS
BD-Java:        No
BDInfo:         0.5.8

PLAYLIST REPORT:

Name:                   00001.MPLS
Length:                 2:15:04.429 (h:m:s.ms)
Size:                   0 bytes
Total Bitrate:          0.00 Mbps

VIDEO:

Codec                   Bitrate             Description     
-----                   -------             -----------     
MPEG-4 AVC Video        0 kbps              1080i / 29.970 fps / 16:9 / High Profile 4.1

AUDIO:

Codec                           Language        Bitrate         Description     
-----                           --------        -------         -----------     
LPCM Audio                      Japanese        2304 kbps       2.0 / 48 kHz / 2304 kbps / 24-bit

FILES:

Name            Time In         Length          Size            Total Bitrate   
----            -------         ------          ----            -------------   
00002.M2TS      0:00:00.000     1:23:00.308     0               0               
00003.M2TS      1:23:00.308     0:51:56.112     0               0               
00005.M2TS      2:14:56.421     0:00:08.007     0               0               
为您推荐 花泽香菜,HanazawaKana 相关的演唱会视频
主音唯一码
lgych-00408
文件大小
54.5G
百度网盘下载
提取码
e2m4
文件解压密码
最新天气预报