> AKB48组合<AKB48 Request Hour Setlist Best 100 2013>乐曲年度
歌 手 : AKB48组合
主音唯一码 : lgych-00434
视频大小 : 207G主音网微信 : zhuyinwang01
创建时间 : 2018-09-10主音网QQ客服 :2305540263
视频目录 : 日本演唱会
主音网邮箱 :bimuyu#zhuyin.com(请把#改成@)
主音唯一码
lgych-00434
文件大小
207G
百度网盘下载
提取码
58mn
文件解压密码
AKB48组合<AKB48 Request Hour Setlist Best 100 2013>乐曲年度 视频截图


































AKB48组合<AKB48 Request Hour Setlist Best 100 2013>乐曲年度 视频剧情截图
AKB48组合<AKB48 Request Hour Setlist Best 100 2013>乐曲年度 演唱会曲目介绍
AKB48组合 AKB48 Request Hour Setlist Best 100 2013 乐曲年度选拔演唱会【207G】1080P蓝光原盘.六碟

演唱会曲目

D1

100位 ごめんね、SUMMER
99位 僕のYELL
98位 草原の奇跡
97位 バッチコイK!
96位 偶然の十字路
95位 次のSeason
94位 片思いの対角線
93位 呼び捨てファンタジー
92位 星空のキャラバン
91位 眼差しサヨナラ
90位 パレオはエメラルド
89位 君と僕の関係
88位 少女たちよ
87位 結晶
86位 オーマイガー!
85位 心の端のソファー
84位 支え
83位 RIVER
82位 炎上路線
81位 Beginner
80位 ポニーテールとシュシュ
79位 天使のしっぽ
78位 口移しのチョコレート
77位 風は吹いている
76位 抱きしめられたら

D2

75位 ウィンブルドンへ連れて行って
74位 正義の味方じゃないヒーロー
73位 キスだって左利き
72位 嵐の夜には
71位 アイシテラブル!
70位 TWO ROSES
69位 エンドロール
68位 彼女になれますか?
67位 なんてボヘミアン
66位 お待たせSet list
65位 クロス
64位 桜の花びらたち
63位 Only today
62位 キャンディー
61位 夕陽を見ているか?
60位 恋を語る詩人になれなくて
59位 フィンランド?ミラクル
58位 残念少女
57位 ドレミファ音痴
56位 君のc/w
55位 MARIA
54位 フライングゲット
53位 Choose me !
52位 逆転王子様
51位 Show fight !

D3

50位 大声ダイヤモンド
49位 純愛のクレッシェンド
48位 RESET
47位 Everyday、カチューシャ
46位 GIVE ME FIVE !
45位 スキャンダラスに行こう!
44位 みつばちガール
43位 Pioneer
42位 羽豆岬
41位 思い出のほとんど
40位 ジャングルジム
39位 くるくるぱー
38位 HKT48
37位 愛しさのアクセル
36位 Bird
35位 片想いFinally
34位 真夏のSounds good !
33位 ナギイチ
32位 お手上げララバイ
31位 ぐぐたすの空
30位 言い訳Maybe
29位 わるきー
28位 青春のラップタイム
27位 てもでもの涙
26位 抱きしめちゃいけない

D4

25位 プラスティックの唇
24位 純情主義
23位 初日
22位 思い出以上
21位 北川謙二
20位 アボガドじゃね~し…
19位 ハート型ウイルス
18位 孤独なランナー
17位 君のことが好きだから
16位 UZA
15位 枯葉のステーション
14位 ギンガムチェック
13位 狼とプライド
12位 ファースト?ラビット
11位 重力シンパシー
10位 泣きながら微笑んで
9位 夢の河
8位 夜風の仕業
7位 チームB推し
6位 愛しきナターシャ
5位 虫のバラード
4位 ヘビーローテーション
3位 上からマリコ
2位 奇跡は間に合わない
1位 走れ!ペンギン
主音唯一码
lgych-00434
文件大小
207G
百度网盘下载
提取码
58mn
文件解压密码
AKB48组合<AKB48 Request Hour Setlist Best 100 2013>乐曲年度 演唱会视频参数信息
演唱会参数信息

DISC INFO:

Disc Title:     lgych-00434 AKB48组合 AKB48 Request Hour Setlist Best 100 2013 乐曲年度选拔演唱会【207G】1080P蓝光原盘.六碟
Disc Size:      44,207,833,644 bytes
Protection:     AACS
BD-Java:        No
BDInfo:         0.5.8

PLAYLIST REPORT:

Name:                   00003.MPLS
Length:                 2:35:42.366 (h:m:s.ms)
Size:                   0 bytes
Total Bitrate:          0.00 Mbps

VIDEO:

Codec                   Bitrate             Description     
-----                   -------             -----------     
MPEG-4 AVC Video        0 kbps              1080i / 29.970 fps / 16:9 / High Profile 4.1

AUDIO:

Codec                           Language        Bitrate         Description     
-----                           --------        -------         -----------     
LPCM Audio                      Japanese        2304 kbps       2.0 / 48 kHz / 2304 kbps / 24-bit
LPCM Audio                      Japanese        2304 kbps       2.0 / 48 kHz / 2304 kbps / 24-bit

FILES:

Name            Time In         Length          Size            Total Bitrate   
----            -------         ------          ----            -------------   
00001.M2TS      0:00:00.000     0:00:37.070     0               0               
00002.M2TS      0:00:37.070     1:29:34.869     0               0               
00008.M2TS      1:30:11.939     0:03:40.119     0               0               
00003.M2TS      1:33:52.059     0:54:51.655     0               0               
为您推荐 AKB48组合 相关的演唱会视频
主音唯一码
lgych-00434
文件大小
207G
百度网盘下载
提取码
58mn
文件解压密码
最新天气预报