> AKB48组合<AKB48 Request Hour Setlist Best 100>乐曲年度选拔演
歌 手 : AKB48组合
主音唯一码 : lgych-00438
视频大小 : 195G主音网微信 : zhuyinwang01
创建时间 : 2018-09-10主音网QQ客服 :不在接受qq咨询,有事找微信。说明来意。
视频目录 : 日本演唱会
主音网邮箱 :bimuyu#zhuyin.com(请把#改成@)
主音唯一码
lgych-00438
文件大小
195G
百度网盘下载
提取码
7wy4
文件解压密码
AKB48组合<AKB48 Request Hour Setlist Best 100>乐曲年度选拔演 视频截图




































AKB48组合<AKB48 Request Hour Setlist Best 100>乐曲年度选拔演 视频剧情截图
AKB48组合<AKB48 Request Hour Setlist Best 100>乐曲年度选拔演 演唱会曲目介绍
AKB48组合 AKB48 Request Hour Setlist Best 100 乐曲年度选拔演唱会2016【195G】1080P蓝光原盘.六碟

演唱会曲目

D.1 100-81
D.2 80-61
D.3 60-41
D.4 40-21
D.5 20-1
主音唯一码
lgych-00438
文件大小
195G
百度网盘下载
提取码
7wy4
文件解压密码
AKB48组合<AKB48 Request Hour Setlist Best 100>乐曲年度选拔演 演唱会视频参数信息
演唱会参数信息

DISC INFO:

Disc Title:     lgych-00438 AKB48组合 AKB48 Request Hour Setlist Best 100 乐曲年度选拔演唱会2016【195G】1080P蓝光原盘.六碟
Disc Size:      41,597,424,520 bytes
Protection:     AACS
BD-Java:        No
BDInfo:         0.5.8

PLAYLIST REPORT:

Name:                   00001.MPLS
Length:                 3:34:03.363 (h:m:s.ms)
Size:                   0 bytes
Total Bitrate:          0.00 Mbps

VIDEO:

Codec                   Bitrate             Description     
-----                   -------             -----------     
MPEG-4 AVC Video        0 kbps              1080i / 29.970 fps / 16:9 / High Profile 4.1

AUDIO:

Codec                           Language        Bitrate         Description     
-----                           --------        -------         -----------     
LPCM Audio                      Japanese        1536 kbps       2.0 / 48 kHz / 1536 kbps / 16-bit

FILES:

Name            Time In         Length          Size            Total Bitrate   
----            -------         ------          ----            -------------   
00001.M2TS      0:00:00.000     0:26:18.343     0               0               
00002.M2TS      0:26:18.343     0:25:17.115     0               0               
00003.M2TS      0:51:35.459     0:26:01.393     0               0               
为您推荐 AKB48组合 相关的演唱会视频
主音唯一码
lgych-00438
文件大小
195G
百度网盘下载
提取码
7wy4
文件解压密码
最新天气预报