> Perfume 电音香水<Perfume Clips 2>MV精选合集2017【37.7G】1080
歌 手 : Perfume,电音香水,西脇绫香,樫野有香,大本彩乃
主音唯一码 : lgych-00444
视频大小 : 37.7G主音网微信 : zhuyinwang01
创建时间 : 2018-09-10主音网QQ客服 :不在接受qq咨询,有事找微信。说明来意。
视频目录 : 日本演唱会
主音网邮箱 :bimuyu#zhuyin.com(请把#改成@)
主音唯一码
lgych-00444
文件大小
37.7G
百度网盘下载
提取码
7g2w
文件解压密码
Perfume 电音香水<Perfume Clips 2>MV精选合集2017【37.7G】1080 视频截图






















Perfume 电音香水<Perfume Clips 2>MV精选合集2017【37.7G】1080 视频剧情截图
Perfume 电音香水<Perfume Clips 2>MV精选合集2017【37.7G】1080 演唱会曲目介绍
Perfume 电音香水 Perfume Clips 2 MV精选合集2017【37.7G】1080P蓝光原盘

演唱会曲目

01. Spring of Life
02. Spending all my time
03. 未来のミュージアム
04. Magic of Love
05. 1mm
06. Sweet Refrain
07. Cling Cling
08. DISPLAY
09. Hold Your Hand
10. Relax In The City
11. Pick Me Up
12. STAR TRAIN
13. FLASH
14. TOKYO GIRL
15. Everyday
16. If you wanna
主音唯一码
lgych-00444
文件大小
37.7G
百度网盘下载
提取码
7g2w
文件解压密码
Perfume 电音香水<Perfume Clips 2>MV精选合集2017【37.7G】1080 演唱会视频参数信息
演唱会参数信息

DISC INFO:

Disc Title:     lgych-00444 Perfume 电音香水 Perfume Clips 2 MV精选合集2017【37.7G】1080P蓝光原盘
Disc Size:      19,226,759,264 bytes
Protection:     AACS
BD-Java:        No
BDInfo:         0.5.8

PLAYLIST REPORT:

Name:                   00000.MPLS
Length:                 1:03:44.487 (h:m:s.ms)
Size:                   0 bytes
Total Bitrate:          0.00 Mbps

VIDEO:

Codec                   Bitrate             Description     
-----                   -------             -----------     
MPEG-4 AVC Video        0 kbps              1080i / 29.970 fps / 16:9 / High Profile 4.1

AUDIO:

Codec                           Language        Bitrate         Description     
-----                           --------        -------         -----------     
LPCM Audio                      Japanese        2304 kbps       2.0 / 48 kHz / 2304 kbps / 24-bit

FILES:

Name            Time In         Length          Size            Total Bitrate   
----            -------         ------          ----            -------------   
00000.M2TS      0:00:00.000     0:04:00.773     0               0               
00001.M2TS      0:04:00.773     0:03:56.269     0               0               
00002.M2TS      0:07:57.043     0:03:31.644     0               0               
00003.M2TS      0:11:28.687     0:03:55.001     0               0               
为您推荐 Perfume,电音香水,西脇绫香,樫野有香,大本彩乃 相关的演唱会视频
主音唯一码
lgych-00444
文件大小
37.7G
百度网盘下载
提取码
7g2w
文件解压密码
最新天气预报