> AKB48组合<AKB48 Team 8 no Bunbun Eight Daihousou 大放送>音乐
歌 手 : AKB48组合
主音唯一码 : lgych-00445
视频大小 : 84.8G主音网微信 : zhuyinwang01
创建时间 : 2018-09-10主音网QQ客服 :2305540263
视频目录 : 日本演唱会
主音网邮箱 :bimuyu#zhuyin.com(请把#改成@)
主音唯一码
lgych-00445
文件大小
84.8G
百度网盘下载
提取码
b62c
文件解压密码
AKB48组合<AKB48 Team 8 no Bunbun Eight Daihousou 大放送>音乐 视频截图
























AKB48组合<AKB48 Team 8 no Bunbun Eight Daihousou 大放送>音乐 视频剧情截图
AKB48组合<AKB48 Team 8 no Bunbun Eight Daihousou 大放送>音乐 演唱会曲目介绍
AKB48组合 AKB48 Team 8 no Bunbun Eight Daihousou 大放送 音乐综艺节目【84.8G】1080P蓝光原盘.四碟

演唱会曲目

暂无

主音唯一码
lgych-00445
文件大小
84.8G
百度网盘下载
提取码
b62c
文件解压密码
AKB48组合<AKB48 Team 8 no Bunbun Eight Daihousou 大放送>音乐 演唱会视频参数信息
演唱会参数信息

DISC INFO:

Disc Title:     lgych-00445 AKB48组合 AKB48 Team 8 no Bunbun Eight Daihousou 大放送 音乐综艺节目【84.8G】1080P蓝光原盘.四碟
Disc Size:      22,936,900,181 bytes
Protection:     AACS
BD-Java:        No
BDInfo:         0.5.8

PLAYLIST REPORT:

Name:                   00002.MPLS
Length:                 1:59:22.722 (h:m:s.ms)
Size:                   0 bytes
Total Bitrate:          0.00 Mbps

VIDEO:

Codec                   Bitrate             Description     
-----                   -------             -----------     
MPEG-4 AVC Video        0 kbps              1080i / 29.970 fps / 16:9 / High Profile 4.1

AUDIO:

Codec                           Language        Bitrate         Description     
-----                           --------        -------         -----------     
LPCM Audio                      Japanese        2304 kbps       2.0 / 48 kHz / 2304 kbps / 24-bit

FILES:

Name            Time In         Length          Size            Total Bitrate   
----            -------         ------          ----            -------------   
00002.M2TS      0:00:00.000     0:22:16.001     0               0               
00005.M2TS      0:22:16.001     0:17:15.968     0               0               
00003.M2TS      0:39:31.969     0:21:09.001     0               0               
00006.M2TS      1:00:40.970     0:18:55.000     0               0               
00004.M2TS      1:19:35.971     0:22:16.001     0               0               
00007.M2TS      1:41:51.972     0:17:30.749     0               0               
为您推荐 AKB48组合 相关的演唱会视频
主音唯一码
lgych-00445
文件大小
84.8G
百度网盘下载
提取码
b62c
文件解压密码
最新天气预报