> 倖田来未 幸田来未<Koda Kumi Winter of Love>高清蓝光专辑MV精
歌 手 : 倖田来未,幸田来未,Koda Kumi
主音唯一码 : lgych-00447
视频大小 : 27.8G主音网微信 : zhuyinwang01
创建时间 : 2018-09-10主音网QQ客服 :不在接受qq咨询,有事找微信。说明来意。
视频目录 : 日本演唱会
主音网邮箱 :bimuyu#zhuyin.com(请把#改成@)
主音唯一码
lgych-00447
文件大小
27.8G
百度网盘下载
提取码
txsp
文件解压密码
倖田来未 幸田来未<Koda Kumi Winter of Love>高清蓝光专辑MV精 视频截图


















倖田来未 幸田来未<Koda Kumi Winter of Love>高清蓝光专辑MV精 视频剧情截图
倖田来未 幸田来未<Koda Kumi Winter of Love>高清蓝光专辑MV精 演唱会曲目介绍
倖田来未 幸田来未 Koda Kumi Winter of Love 高清蓝光专辑MV精选集合2016【27.8G】1080P蓝光原盘

演唱会曲目

1.奇迹
2.hands
3.Promise
4.you
5.夢のうた
6.運命
7.愛証
8.愛のうた
9.Moon Crying
10.stay with me
11.好きで、好きで、好きで。
12.あなただけが
13.愛を止めないで
14.恋しくて
15.Dance In The Rain
16.On And On
17.NO ME WITHOUT YOU
18.[Bonus Movie] The Making of On And On
19.[Bonus Movie] The Making of NO ME WITHOUT YOU
主音唯一码
lgych-00447
文件大小
27.8G
百度网盘下载
提取码
txsp
文件解压密码
倖田来未 幸田来未<Koda Kumi Winter of Love>高清蓝光专辑MV精 演唱会视频参数信息
演唱会参数信息

DISC INFO:

Disc Title:     lgych-00447 倖田来未 幸田来未 Koda Kumi Winter of Love 高清蓝光专辑MV精选集合2016【27.8G】1080P蓝光原盘
Disc Size:      29,907,018,796 bytes
Protection:     AACS
BD-Java:        No
BDInfo:         0.5.8

PLAYLIST REPORT:

Name:                   00001.MPLS
Length:                 1:43:05.045 (h:m:s.ms)
Size:                   0 bytes
Total Bitrate:          0.00 Mbps

VIDEO:

Codec                   Bitrate             Description     
-----                   -------             -----------     
MPEG-4 AVC Video        0 kbps              1080i / 29.970 fps / 16:9 / High Profile 4.1

AUDIO:

Codec                           Language        Bitrate         Description     
-----                           --------        -------         -----------     
LPCM Audio                      Japanese        1536 kbps       2.0 / 48 kHz / 1536 kbps / 16-bit

FILES:

Name            Time In         Length          Size            Total Bitrate   
----            -------         ------          ----            -------------   
00001.M2TS      0:00:00.000     0:05:13.379     0               0               
00002.M2TS      0:05:13.379     0:04:40.113     0               0               
00003.M2TS      0:09:53.492     0:05:00.400     0               0               
00004.M2TS      0:14:53.892     0:06:34.794     0               0               
00005.M2TS      0:21:28.687     0:05:15.315     0               0               
为您推荐 倖田来未,幸田来未,Koda Kumi 相关的演唱会视频
主音唯一码
lgych-00447
文件大小
27.8G
百度网盘下载
提取码
txsp
文件解压密码
最新天气预报