> AKB48组合<大岛优子毕业演唱会 in 味之素体育场>2014演唱会+特典
歌 手 : AKB48组合,大岛优子
主音唯一码 : lgych-00449
视频大小 : 198G主音网微信 : zhuyinwang01
创建时间 : 2018-09-10主音网QQ客服 :不在接受qq咨询,有事找微信。说明来意。
视频目录 : 日本演唱会
主音网邮箱 :bimuyu#zhuyin.com(请把#改成@)
主音唯一码
lgych-00449
文件大小
198G
百度网盘下载
提取码
bepn
文件解压密码
AKB48组合<大岛优子毕业演唱会 in 味之素体育场>2014演唱会+特典 视频截图




























AKB48组合<大岛优子毕业演唱会 in 味之素体育场>2014演唱会+特典 视频剧情截图
AKB48组合<大岛优子毕业演唱会 in 味之素体育场>2014演唱会+特典 演唱会曲目介绍
lgych-00449 AKB48组合 大岛优子毕业演唱会 in 味之素体育场 2014演唱会+特典+纪录片【198G】1080P蓝光原盘.六碟

演唱会曲目

D1+D2

2014.06.08
大岛优子卒业コンサートin味の素スタジアム
~6月8日の降水确率56%(5月16日现在)、てるてる坊主は本当に効果があるのか?~ 

01.overture
02.泣きながら微笑んで
03.ヘビーローテーション
04.会いたかった
05.Everyday、カチューシャ
06.フライングゲット
07.少女たちよ
08.爱しきライバル
09.ハートの脱出ゲーム
10.君は気まぐれ
11.Bガーデン
12.あなたがいてくれたから
13.スキャンダラスに行こう!
14.仆とジュリエットとジェットコースター
15.周末Not yet
16.重力シンパシー
17.言い訳Maybe
18.イビサガール
19.ナギイチ
20.ロックだよ、人生は…
21.メロンジュース
22.未来とは?
23.オキドキ
24.AKBフェスティバル
25.ひこうき云
26.教えてMommy
27.昨日よりもっと好き
28.After rain
29.君のことが好きだから
30.青春の稲妻
31.エンドロール
32.1994年の雷鸣
33.禁じられた2人
34.RIVER
35.ファースト?9?9ラビット
36.大声ダイヤモンド
37.さよならクロール
38.ギンガムチェック
39.约束よ

-ENCORE-

EN01.今日までのメロディー
EN02.草原の奇迹
EN03.支え
EN04.前しか向かねえ
EN05.ヘビーローテーション
EN06.ラブラドール?9?9レトリバー


D3

メモリアルコレクション
2014.03.29
AKB48単独 春コン in 国立竞技场~思い出は全部ここに舍てていけ!~ 

01.overture
02.転がる石になれ
03.ファースト?9?9ラビット
04.会いたかった
05.Everyday、カチューシャ
06.重力シンパシー
07.アイドルの夜明け
08.初日
09.呼び舍てファンタジー
10.ただいま 恋爱中
11.Only today
12.BINGO!
13.青春ガールズ
14.最终ベルが鸣る
15.ボーイフレンドの作り方
16.くまのぬいぐるみ
17.彼女になれますか?
18.手をつなぎながら
19.前しか向かねえ
20.GIVE ME FIVE!
21.Baby ! Baby ! Baby !
22.君のことが好きだから
23.君と虹と太阳と
24.仆のYELL
25.Confession
26.ごめんね ジュエル
27.心の端のソファー
28.背中から抱きしめて
29.夕阳を见ているか?
30.AKBフェスティバル
31.ひこうき云
32.泣きながら微笑んで
33.言い訳Maybe
34.ずっと ずっと
35.ラッキーセブン
36.清纯フィロソフィー
37.オネストマン
38.仆たちの纸飞行机
39.RESET
40.回游鱼のキャパシティ
41.AKB48
42.大声ダイヤモンド
43.UZA
44.掌が语ること
45.真夏のSounds good !
46.フライングゲット
47.さよならクロール
48.ポニーテールとシュシュ
49.ギンガムチェック
50.ヘビーローテーション
51.桜の花びらたち

-ENCORE-

EN01.ラブラドール?9?9レトリバー
EN02.少女たちよ
EN03.After rain
EN04.恋するフォーチュンクッキー


D4

メモリアルコレクション
2014.06.09
AKB48大岛优子卒业公演 

01.overture
02.マンモス
03.最终ベルが鸣る
04.ボーイフレンドの作り方
05.伟い人になりたくない
06.狼とプライド
07.リターンマッチ
08.初恋泥棒
09.ごめんね ジュエル
10.おしべとめしべと夜の蝶々
11.19人姉妹の歌
12.泣きながら微笑んで
13.Stand up
14.Cool girl
15.回游鱼のキャパシティ
16.会いに行こう
17.シャムネコ
18.メロスの道
19.支え
20.ギンガムチェック
21.Everyday、カチューシャ
22.今日までのメロディー
23.草原の奇迹
24.ヘビーローテーション


D5+D6

メイキング&特典映像

.Making of 春コン in 国立竞技场
.Making of 大岛优子卒业コンサート in 味の素スタジアム
.支え~メンバーと最后の握手会~
.大岛优子へのメッセージ
.YUKO OSHIMA DOCUMENTARY
主音唯一码
lgych-00449
文件大小
198G
百度网盘下载
提取码
bepn
文件解压密码
AKB48组合<大岛优子毕业演唱会 in 味之素体育场>2014演唱会+特典 演唱会视频参数信息
演唱会参数信息

DISC INFO:

Disc Title:     lgych-00449 AKB48组合 大岛优子毕业演唱会 in 味之素体育场 2014演唱会+特典+纪录片【198G】1080P蓝光原盘.六碟
Disc Size:      45,802,775,000 bytes
Protection:     AACS
BD-Java:        No
BDInfo:         0.5.8

PLAYLIST REPORT:

Name:                   00002.MPLS
Length:                 3:29:19.647 (h:m:s.ms)
Size:                   0 bytes
Total Bitrate:          0.00 Mbps

VIDEO:

Codec                   Bitrate             Description     
-----                   -------             -----------     
MPEG-4 AVC Video        0 kbps              1080i / 29.970 fps / 16:9 / High Profile 4.1

AUDIO:

Codec                           Language        Bitrate         Description     
-----                           --------        -------         -----------     
LPCM Audio                      Japanese        2304 kbps       2.0 / 48 kHz / 2304 kbps / 24-bit
DTS-HD Master Audio             Japanese        0 kbps          5.1 / 48 kHz / 24-bit (DTS Core: 5.1 / 48 kHz / 1509 kbps / 24-bit)

FILES:

Name            Time In         Length          Size            Total Bitrate   
----            -------         ------          ----            -------------   
00002.M2TS      0:00:00.000     0:00:38.071     0               0               
00003.M2TS      0:00:38.071     1:51:13.700     0               0               
00004.M2TS      1:51:51.771     1:37:27.875     0               0               
为您推荐 AKB48组合,大岛优子 相关的演唱会视频
主音唯一码
lgych-00449
文件大小
198G
百度网盘下载
提取码
bepn
文件解压密码
最新天气预报