> AKB48组合<AKB48 Music Video Collection>2017最全蓝光MV精选集
歌 手 : AKB48组合,Team 8
主音唯一码 : lgych-00452
视频大小 : 204G主音网微信 : zhuyinwang01
创建时间 : 2018-09-10主音网QQ客服 :不在接受qq咨询,有事找微信。说明来意。
视频目录 : 日本演唱会
主音网邮箱 :bimuyu#zhuyin.com(请把#改成@)
主音唯一码
lgych-00452
文件大小
204G
百度网盘下载
提取码
ub87
文件解压密码
AKB48组合<AKB48 Music Video Collection>2017最全蓝光MV精选集 视频截图


































AKB48组合<AKB48 Music Video Collection>2017最全蓝光MV精选集 视频剧情截图
AKB48组合<AKB48 Music Video Collection>2017最全蓝光MV精选集 演唱会曲目介绍
AKB48组合 AKB48 Music Video Collection 2017最全蓝光MV精选集合共117首歌曲【204G】1080P蓝光原盘.六碟

演唱会曲目

D.1
01 恋するフォーチュンクッキー
02 愛の意味を考えてみた
03 今度こそエクスタシー
04 推定マーマレード
05 最後のドア
06 涙のせいじゃない
07 ハート?エレキ
08 ハート?エレキ -Dance ver.-
09 快速と動体視力
10 キスまでカウントダウン
11 細雪リグレット
12 君だけにChu ! Chu ! Chu !
13 Tiny T-shirt
14 清純フィロソフィー
15 鈴懸の木の道で「君の微笑みを夢に見る」と言ってしまったら僕たちの関係はどう変わってしまうのか、僕なりに何日か考えた上でのやや気恥ずかしい結論のようなもの -Short Film ver.-
16 鈴懸の木の道で「君の微笑みを夢に見る」と言ってしまったら僕たちの関係はどう変わってしまうのか、僕なりに何日か考えた上でのやや気恥ずかしい結論のようなもの
17 Mosh & Dive
18 Party is over
19 LOVE修行

D.2
01 前しか向かねえ
02 前しか向かねえ-Dance ver.-
03 昨日よりもっと好き
04 君の嘘を知っていた
05 秘密のダイアリー
06 KONJO
07 ラブラドール?レトリバー
08 今日までのメロディー
09 君は気まぐれ
10 愛しきライバル
11 Bガーデン
12 ハートの脱出ゲーム
13 ハートの脱出ゲーム Answer Movie
14 心のプラカード
15 誰かが投げたボール
16 ひと夏の反抗期
17 性格が悪い女の子
18 チューインガムの味がなくなるまで
19 セーラーゾンビ
20 教えてMommy
21 47の素敵な街へ

D.3
01 希望的リフレイン
02 希望的リフレイン -Live ver.-
03 今、Happy
04 従順なSlave
05 Ambulance
06 初めてのドライブ
07 歌いたい
08 ロンリネスクラブ
09 制服の羽根
10 目を開けたままのファーストキス
11 風の螺旋
12 Reborn
13 Green Flash
14 マジすかFight
15 春の光 近づいた夏
16 ヤンキーロック
17 履物と傘の物語
18 挨拶から始めよう

D.4
01 僕たちは戦わない
02 Summer side
03 “ダンシ”は研究対象
04 カフカとでんでんむChu !
05 汚れている真実
06 バレバレ節
07 君の第二章
08 ハロウィン?ナイト
09 さよならサーフボード
10 君にウェディングドレスを…
11 君だけが秋めいていた
12 水の中の伝導率
13 一歩目音頭
14 ヤンキーマシンガン
15 唇にBe My Baby
16 365日の紙飛行機
17 君を君を君を…
18 やさしい place
19 マドンナの選択
20 お姉さんの独り言
21 あまのじゃくバッタ
22 金の羽根を持つ人よ
23 背中言葉
24 なんか、ちょっと、急に…

D.5
01 君はメロディー
02 LALALAメッセージ
03 混ざり合うもの
04 翼はいらない
05 翼はいらない -完全版-
06 Set me free
07 恋をすると馬鹿を見る
08 考える人
09 哀愁のトランペッター
10 夢へのルート
11 LOVE TRIP
12 しあわせを分けなさい
13 しあわせを分けなさい -Long ver.-
14 光と影の日々
15 伝説の魚
16 進化してねえじゃん
17 岸が見える海から
18 2016年のInvitation
19 光の中へ

DISC6
01 ハイテンション
02 抑えきれない衝動
03 ハッピーエンド
04 Better
05 星空を君に
06 思春期のアドレナリン
07 清純タイアド
08 シュートサイン
09 気づかれないように…
10 アクシデント中
11 誰のことを一番 愛してる?
12 願いごとの持ち腐れ
13 イマパラ
14 前触れ
15 点滅フェロモン
16 あの頃の五百円玉
主音唯一码
lgych-00452
文件大小
204G
百度网盘下载
提取码
ub87
文件解压密码
AKB48组合<AKB48 Music Video Collection>2017最全蓝光MV精选集 演唱会视频参数信息
演唱会参数信息

DISC INFO:

Disc Title:     lgych-00452 AKB48组合 AKB48 Music Video Collection 2017最全蓝光MV精选集合共117首歌曲【204G】1080P蓝光原盘.六碟
Disc Size:      41,414,605,981 bytes
Protection:     AACS
BD-Java:        No
BDInfo:         0.5.8

PLAYLIST REPORT:

Name:                   00001.MPLS
Length:                 2:50:47.470 (h:m:s.ms)
Size:                   0 bytes
Total Bitrate:          0.00 Mbps

VIDEO:

Codec                   Bitrate             Description     
-----                   -------             -----------     
MPEG-4 AVC Video        0 kbps              1080i / 29.970 fps / 16:9 / High Profile 4.1

AUDIO:

Codec                           Language        Bitrate         Description     
-----                           --------        -------         -----------     
LPCM Audio                      Japanese        2304 kbps       2.0 / 48 kHz / 2304 kbps / 24-bit

FILES:

Name            Time In         Length          Size            Total Bitrate   
----            -------         ------          ----            -------------   
00000.M2TS      0:00:00.000     0:05:22.355     0               0               
00001.M2TS      0:05:22.355     0:10:45.878     0               0               
00002.M2TS      0:16:08.233     0:04:11.284     0               0               
00003.M2TS      0:20:19.518     0:04:39.279     0               0               
00004.M2TS      0:24:58.797     0:05:38.037     0               0               
00005.M2TS      0:30:36.834     0:05:58.224     0               0               
为您推荐 AKB48组合,Team 8 相关的演唱会视频
主音唯一码
lgych-00452
文件大小
204G
百度网盘下载
提取码
ub87
文件解压密码
最新天气预报