> 蓝光歌舞MV<Top 40 Yash Raj Videos>40首印度电影精选歌舞集锦20
歌 手 : 阿米尔汗,沙鲁克汗
主音唯一码 : lgych-00461
视频大小 : 42.2G主音网微信 : zhuyinwang01
创建时间 : 2018-09-10主音网QQ客服 :2305540263
视频目录 : 欧美演唱会
主音网邮箱 :bimuyu#zhuyin.com(请把#改成@)
主音唯一码
lgych-00461
文件大小
42.2G
百度网盘下载
提取码
byzs
文件解压密码
蓝光歌舞MV<Top 40 Yash Raj Videos>40首印度电影精选歌舞集锦20 视频截图




















蓝光歌舞MV<Top 40 Yash Raj Videos>40首印度电影精选歌舞集锦20 视频剧情截图
蓝光歌舞MV<Top 40 Yash Raj Videos>40首印度电影精选歌舞集锦20 演唱会曲目介绍
lgych-00461 蓝光歌舞MV Top 40 Yash Raj Videos 40首印度电影精选歌舞集锦2011【42.2G】1080P蓝光原盘

演唱会曲目

01 - Haule Haule - Rab Ne Bana Di Jodi
02 - Chand Sifarish - Fanna
03 - Main Yahan Hoon - Veer Zaara
04 - Kal Ho Na Ho - Kal Ho Na Ho
05 - Humko Humise Chura Lo - Mohabbatein
06 - Mere sang - New York
07 - Kuch Kuch Hota Hai - Kuch Kuch Hota Hai
08 - Tujhe Dekha - Dilwale Dulhaniya Le Jayenge
09 - Khuda Jaane - Bachna Ae Hasino
10 - Dhoom Again - Dhoom 2
11 - Saajanji Ghar Aaye - Kuch Kuch Hota Hai
12 - Dil To Pagal Hai - Dil To Pagal Hai
13 - You Are My Sonia - Kabhi Khushi Kabhi Gam
14 - Bachna Ae Hasino - Bachna Ae Hasino
15 - Jaane Kyun - Dostana
16 - Hai Junoon - New York
17 - Mitwa - Kabhi Alvida Na Kehna
18 - Tere Liye - Veer Zaara
19 - Aankhein Khuli - Mohabbatein 新娘嫁人了,新郎不是我
20 - Pyar Kar - Dil To Pagal Hai
21 - Mere Khwabon - Dilwale Dulhaniya Le Jayenge
22 - Chalte Chalte - Mohabbatein
23 - Le Gayi - Dil To Pagal Hai
24 - Crazy Kiya Re - Dhoom 2
25 - Dhoom Machale - Dhoom
26 - Lucky Boy - Bachna Ae Hasino
27 - Maa Da Ladla - Dostana
28 - Dance pe Chance - Rab Ne Bana Di Jodi
29 - Hadippa - Dil Bole Hadipa
30 - Chak De - Chak De India
31 - Phir Milenge - Rab Ne Bana Di Jodi
32 - Desi Girl - Dostana
33 - Dil Laga Na - Dhoom 2
34 - Bole Chudiya - Kabhi Khushi Kabhi Gam
35 - Mehendi Lagake - Dilwale Dulhaniya Le Jayenge
36 - Pretty Woman - Kal Ho Na Ho
37 - Were Is The Party - Kabhi Alvida Na Kehna
38 - Lodi - Veer Zaara
39 - Aahista Aahista - Bachna Ae Hasino
40 - KANK - Kabhi Alvida Na Kehna
主音唯一码
lgych-00461
文件大小
42.2G
百度网盘下载
提取码
byzs
文件解压密码
蓝光歌舞MV<Top 40 Yash Raj Videos>40首印度电影精选歌舞集锦20 演唱会视频参数信息
演唱会参数信息

DISC INFO:

Disc Title:     lgych-00461 蓝光歌舞MV Top 40 Yash Raj Videos 40首印度电影精选歌舞集锦2011【42.2G】1080P蓝光原盘
Disc Size:      45,356,803,272 bytes
Protection:     AACS
BD-Java:        No
BDInfo:         0.5.8

PLAYLIST REPORT:

Name:                   00001.MPLS
Length:                 3:35:12.916 (h:m:s.ms)
Size:                   0 bytes
Total Bitrate:          0.00 Mbps

VIDEO:

Codec                   Bitrate             Description     
-----                   -------             -----------     
MPEG-4 AVC Video        0 kbps              1080p / 24 fps / 16:9 / High Profile 4.1

AUDIO:

Codec                           Language        Bitrate         Description     
-----                           --------        -------         -----------     
Dolby Digital Audio             Hindi           640 kbps        5.1 / 48 kHz / 640 kbps
DTS-HD Master Audio             Hindi           0 kbps          5.1 / 48 kHz / 16-bit (DTS Core: 5.1 / 48 kHz / 1509 kbps / 16-bit)

SUBTITLES:

Codec                           Language        Bitrate         Description     
-----                           --------        -------         -----------     
Presentation Graphics           English         0.000 kbps                      
Presentation Graphics           Arabic          0.000 kbps                      

FILES:

Name            Time In         Length          Size            Total Bitrate   
----            -------         ------          ----            -------------   
00000.M2TS      0:00:00.000     0:05:26.958     0               0               
00001.M2TS      0:05:26.958     0:04:35.875     0               0               
00002.M2TS      0:10:02.833     0:04:57.125     0               0               
00003.M2TS      0:14:59.958     0:05:17.416     0               0               
00004.M2TS      0:20:17.374     0:07:13.749     0               0               
00005.M2TS      0:27:31.124     0:04:53.625     0               0               
为您推荐 阿米尔汗,沙鲁克汗 相关的演唱会视频
主音唯一码
lgych-00461
文件大小
42.2G
百度网盘下载
提取码
byzs
文件解压密码
最新天气预报