> WINNER 胜利者<Winner Exit Tour in JAPAN>日本演唱会2016【40G
歌 手 : WINNER,胜利者,姜昇润,金秦禹,李昇勋,宋旻浩,南太铉
主音唯一码 : lgych-00470
视频大小 : 40G主音网微信 : zhuyinwang01
创建时间 : 2018-09-10主音网QQ客服 :不在接受qq咨询,有事找微信。说明来意。
视频目录 : 韩国演唱会
主音网邮箱 :bimuyu#zhuyin.com(请把#改成@)
主音唯一码
lgych-00470
文件大小
40G
百度网盘下载
提取码
rmur
文件解压密码
WINNER 胜利者<Winner Exit Tour in JAPAN>日本演唱会2016【40G 视频截图


















WINNER 胜利者<Winner Exit Tour in JAPAN>日本演唱会2016【40G 视频剧情截图
WINNER 胜利者<Winner Exit Tour in JAPAN>日本演唱会2016【40G 演唱会曲目介绍
lgych-00470 WINNER 胜利者 Winner Exit Tour in JAPAN 日本演唱会2016【40G】1080P蓝光原盘

演唱会曲目

LOVE IS A LIE
SENTIMENTAL
EMPTY
COLOR RING
DIFFERENT
PRICKED
I'M YOUNG
OKEY DOKEY
うれしい! たのしい! 大好き
IT S RAIN
BABY BABY
TONIGHT
BUT
DON T FLIRT
SMILE AGAIN
MACHINE GUN
IMMATURE
JUST ANOTHER BOY
LA LA
GO UP

I WISH I WAS A KID AGAIN
SENTIMENTAL
IMMATURE
SMILE AGAIN
主音唯一码
lgych-00470
文件大小
40G
百度网盘下载
提取码
rmur
文件解压密码
WINNER 胜利者<Winner Exit Tour in JAPAN>日本演唱会2016【40G 演唱会视频参数信息
演唱会参数信息

DISC INFO:

Disc Title:     lgych-00470 WINNER 胜利者 Winner Exit Tour in JAPAN 日本演唱会2016【40G】1080P蓝光原盘
Disc Size:      42,975,348,228 bytes
Protection:     AACS
BD-Java:        No
BDInfo:         0.5.8

PLAYLIST REPORT:

Name:                   00001.MPLS
Length:                 3:23:49.317 (h:m:s.ms)
Size:                   0 bytes
Total Bitrate:          0.00 Mbps

VIDEO:

Codec                   Bitrate             Description     
-----                   -------             -----------     
MPEG-4 AVC Video        0 kbps              1080i / 29.970 fps / 16:9 / High Profile 4.1

AUDIO:

Codec                           Language        Bitrate         Description     
-----                           --------        -------         -----------     
LPCM Audio                      Japanese        2304 kbps       2.0 / 48 kHz / 2304 kbps / 24-bit

FILES:

Name            Time In         Length          Size            Total Bitrate   
----            -------         ------          ----            -------------   
00001.M2TS      0:00:00.000     0:59:53.623     0               0               
00002.M2TS      0:59:53.623     1:23:48.056     0               0               
00007.M2TS      2:23:41.679     1:00:07.637     0               0               
为您推荐 WINNER,胜利者,姜昇润,金秦禹,李昇勋,宋旻浩,南太铉 相关的演唱会视频
主音唯一码
lgych-00470
文件大小
40G
百度网盘下载
提取码
rmur
文件解压密码
最新天气预报