> 香港组合C AllStar<生于 C AllStar Live 2017>香港第2次红馆演唱
歌 手 : 梁钊峰,陈健安,何建曦,吴崇铭,杨千嬅,郑秀文
主音唯一码 : lgych-00473
视频大小 : 71.5G主音网微信 : zhuyinwang01
创建时间 : 2018-09-10主音网QQ客服 :2305540263
视频目录 : 中国香港演唱会
主音网邮箱 :bimuyu#zhuyin.com(请把#改成@)
主音唯一码
lgych-00473
文件大小
71.5G
百度网盘下载
提取码
nsmw
文件解压密码
香港组合C AllStar<生于 C AllStar Live 2017>香港第2次红馆演唱 视频截图






























香港组合C AllStar<生于 C AllStar Live 2017>香港第2次红馆演唱 视频剧情截图
香港组合C AllStar<生于 C AllStar Live 2017>香港第2次红馆演唱 演唱会曲目介绍
lgych-00473 香港组合C AllStar 生于 C AllStar Live 2017 香港第2次红馆演唱会【71.5G】1080P蓝光原盘.双碟

演唱会曲目

D.1

01.2013的约定
02.一刻恋上
03.80后时代曲
04.新预言书
05.音乐殖民地
06.差词
07.iSing
08.老调儿
09.声音骚了
10.灵魂进化
11.薄情歌
生于斯
12.这一个夜 Show Off
13.夜幕天星
14.时间囊
15.燕尾蝶
16.别让小岛沉没
17.城惶城恐
18.门常关
19.约定
20.日暮途远
21.C Talk
22.专业失恋30年
23.犯贱
24.逾越生死
25.后会无期

D.2

1.DJ Kingindahouse
2.大同相对湿度给我爱过的男孩们最后一夜星海
时日如飞
3.再不再见
4.时日如飞
5.家书
6.天梯
7.此刻无价
8.从当天到今天
9.我们的胡士托
10.总有离开的时候
11.Ladies Gentlemen ThisIs Soul Jase+Take Your Time
12.千秋万世
13.Bounce Back
14.密室
15.最后的歌 杨千嬅 C AllStar
16.最后一次 郑秀文 C AllStar
17.The Making Of 生于 C AllStar
主音唯一码
lgych-00473
文件大小
71.5G
百度网盘下载
提取码
nsmw
文件解压密码
香港组合C AllStar<生于 C AllStar Live 2017>香港第2次红馆演唱 演唱会视频参数信息
演唱会参数信息

DISC INFO:

Disc Title:     lgych-00473 香港组合C AllStar 生于 C AllStar Live 2017 香港第2次红馆演唱会【71.5G】1080P蓝光原盘.双碟
Disc Size:      43,939,394,983 bytes
Protection:     AACS
BD-Java:        No
BDInfo:         0.5.8

PLAYLIST REPORT:

Name:                   00001.MPLS
Length:                 2:23:59.664 (h:m:s.ms)
Size:                   0 bytes
Total Bitrate:          0.00 Mbps

VIDEO:

Codec                   Bitrate             Description     
-----                   -------             -----------     
MPEG-4 AVC Video        0 kbps              1080i / 29.970 fps / 16:9 / High Profile 4.1

AUDIO:

Codec                           Language        Bitrate         Description     
-----                           --------        -------         -----------     
DTS-HD Master Audio             Chinese         0 kbps          5.1 / 96 kHz / 24-bit (DTS Core: 6.1 / 48 kHz / 1509 kbps / 24-bit)
Dolby Digital Audio             Chinese         640 kbps        5.1 / 48 kHz / 640 kbps
LPCM Audio                      Chinese         4608 kbps       2.0 / 96 kHz / 4608 kbps / 24-bit

SUBTITLES:

Codec                           Language        Bitrate         Description     
-----                           --------        -------         -----------     
Presentation Graphics           Chinese         0.000 kbps                      

FILES:

Name            Time In         Length          Size            Total Bitrate   
----            -------         ------          ----            -------------   
00003.M2TS      0:00:00.000     1:08:41.684     0               0               
00007.M2TS      1:08:41.684     0:36:34.225     0               0               
00008.M2TS      1:45:15.909     0:38:43.754     0               0               
为您推荐 梁钊峰,陈健安,何建曦,吴崇铭,杨千嬅,郑秀文 相关的演唱会视频
主音唯一码
lgych-00473
文件大小
71.5G
百度网盘下载
提取码
nsmw
文件解压密码
最新天气预报