> Apink组合<Apink 3rd Live Tour 2017 3years>日本第三次巡回演唱
歌 手 : Apink,朴初珑,尹普美,郑恩地,孙娜恩,金南珠,吴夏荣
主音唯一码 : lgych-00474
视频大小 : 43.2G主音网微信 : zhuyinwang01
创建时间 : 2018-09-10主音网QQ客服 :2305540263
视频目录 : 韩国演唱会
主音网邮箱 :bimuyu#zhuyin.com(请把#改成@)
主音唯一码
lgych-00474
文件大小
43.2G
百度网盘下载
提取码
rvdv
文件解压密码
Apink组合<Apink 3rd Live Tour 2017 3years>日本第三次巡回演唱 视频截图


















Apink组合<Apink 3rd Live Tour 2017 3years>日本第三次巡回演唱 视频剧情截图
Apink组合<Apink 3rd Live Tour 2017 3years>日本第三次巡回演唱 演唱会曲目介绍
lgych-00474 Apink组合 Apink 3rd Live Tour 2017 3years 日本第三次巡回演唱会【43.2G】1080P蓝光原盘

演唱会曲目

努力GO GO
星之星
My First Love
Mr.Chu On Stage
Only One
Sunshine Girl
Always
IF I…
Remember
Summer Time
I m in Love
Brand New Days
KOK KOK
FIVE
LUV
Bye Bye
No No No
MyMy
I Got You
Good Morning Baby
不懂
Singing Star
努力 GO GO
主音唯一码
lgych-00474
文件大小
43.2G
百度网盘下载
提取码
rvdv
文件解压密码
Apink组合<Apink 3rd Live Tour 2017 3years>日本第三次巡回演唱 演唱会视频参数信息
演唱会参数信息

DISC INFO:

Disc Title:     lgych-00474 Apink组合 Apink 3rd Live Tour 2017 3years 日本第三次巡回演唱会【43.2G】1080P蓝光原盘
Disc Size:      46,456,471,983 bytes
Protection:     AACS
BD-Java:        No
BDInfo:         0.5.8

PLAYLIST REPORT:

Name:                   00002.MPLS
Length:                 2:10:57.115 (h:m:s.ms)
Size:                   0 bytes
Total Bitrate:          0.00 Mbps

VIDEO:

Codec                   Bitrate             Description     
-----                   -------             -----------     
MPEG-4 AVC Video        0 kbps              1080i / 29.970 fps / 16:9 / High Profile 4.1

AUDIO:

Codec                           Language        Bitrate         Description     
-----                           --------        -------         -----------     
LPCM Audio                      Japanese        2304 kbps       2.0 / 48 kHz / 2304 kbps / 24-bit

FILES:

Name            Time In         Length          Size            Total Bitrate   
----            -------         ------          ----            -------------   
00005.M2TS      0:00:00.000     1:47:28.441     0               0               
00006.M2TS      1:47:28.441     0:23:11.390     0               0               
00012.M2TS      2:10:39.832     0:00:17.283     0               0               
为您推荐 Apink,朴初珑,尹普美,郑恩地,孙娜恩,金南珠,吴夏荣 相关的演唱会视频
主音唯一码
lgych-00474
文件大小
43.2G
百度网盘下载
提取码
rvdv
文件解压密码
最新天气预报