> AKB48组合<篠田麻里子+秋元才加+板野友美毕业>盛夏五大巨蛋巡回
歌 手 : AKB48组合,篠田麻里子,秋元才加,板野友美毕业
主音唯一码 : lgych-00478
视频大小 : 300G主音网微信 : zhuyinwang01
创建时间 : 2018-09-10主音网QQ客服 :2305540263
视频目录 : 日本演唱会
主音网邮箱 :bimuyu#zhuyin.com(请把#改成@)
主音唯一码
lgych-00478
文件大小
300G
百度网盘下载
提取码
jcx3
文件解压密码
AKB48组合<篠田麻里子+秋元才加+板野友美毕业>盛夏五大巨蛋巡回 视频截图
































AKB48组合<篠田麻里子+秋元才加+板野友美毕业>盛夏五大巨蛋巡回 视频剧情截图
AKB48组合<篠田麻里子+秋元才加+板野友美毕业>盛夏五大巨蛋巡回 演唱会曲目介绍
AKB48组合 篠田麻里子+秋元才加+板野友美毕业 盛夏五大巨蛋巡回演唱会【300G】1080P蓝光原盘.十碟
AKB48 2013 真夏のドームツアー ~まだまだ、やらなきゃいけないことがある~.AKB48 2013日本巨蛋演唱會
AKB48 Summer Dome Tour 2013

演唱会曲目

D 1-2 :2013.07.21 福冈ヤフオク!ドーム2nd DAY 篠田麻里子卒业セレモニー含む59曲収录予定
D 3-4 :2013.08.22 东京ドーム1st DAY 秋元才加卒业セレモニー含む49曲収录予定
D 5-6 :2013.08.25 东京ドーム4th DAY 板野友美卒业セレモニー含む57曲収录予定
D 7-8 :UNIT DISC 56曲収录予定
D 9 :SPECIAL DISC Vol.1/メイキング映像&特典映像
D 10 :SPECIAL DISC Vol.2/卒业生ドキュメンタリー映像
主音唯一码
lgych-00478
文件大小
300G
百度网盘下载
提取码
jcx3
文件解压密码
AKB48组合<篠田麻里子+秋元才加+板野友美毕业>盛夏五大巨蛋巡回 演唱会视频参数信息
演唱会参数信息

DISC INFO:

Disc Title:     lgych-00478 AKB48组合 篠田麻里子+秋元才加+板野友美毕业 盛夏五大巨蛋巡回演唱会2013【300G】1080P蓝光原盘.十碟
Disc Size:      45,988,497,548 bytes
Protection:     AACS
BD-Java:        No
BDInfo:         0.5.8

PLAYLIST REPORT:

Name:                   00000.MPLS
Length:                 2:01:37.223 (h:m:s.ms)
Size:                   0 bytes
Total Bitrate:          0.00 Mbps

VIDEO:

Codec                   Bitrate             Description     
-----                   -------             -----------     
MPEG-4 AVC Video        0 kbps              1080i / 29.970 fps / 16:9 / High Profile 4.1

AUDIO:

Codec                           Language        Bitrate         Description     
-----                           --------        -------         -----------     
LPCM Audio                      Japanese        1536 kbps       2.0 / 48 kHz / 1536 kbps / 16-bit

FILES:

Name            Time In         Length          Size            Total Bitrate   
----            -------         ------          ----            -------------   
00000.M2TS      0:00:00.000     0:40:28.626     0               0               
00001.M2TS      0:40:28.626     0:40:18.616     0               0               
00002.M2TS      1:20:47.242     0:40:49.980     0               0               
为您推荐 AKB48组合,篠田麻里子,秋元才加,板野友美毕业 相关的演唱会视频
主音唯一码
lgych-00478
文件大小
300G
百度网盘下载
提取码
jcx3
文件解压密码
最新天气预报