> Babymetal<The Fox Festivals In Japan 2017>日本演唱会.中元铃
歌 手 : Babymetal,中元铃香,水野由结,菊地最爱
主音唯一码 : lgych-00494
视频大小 : 97.7G主音网微信 : zhuyinwang01
创建时间 : 2018-09-10主音网QQ客服 :不在接受qq咨询,有事找微信。说明来意。
视频目录 : 日本演唱会
主音网邮箱 :bimuyu#zhuyin.com(请把#改成@)
主音唯一码
lgych-00494
文件大小
97.7G
百度网盘下载
提取码
yh9j
文件解压密码
Babymetal<The Fox Festivals In Japan 2017>日本演唱会.中元铃 视频截图
























Babymetal<The Fox Festivals In Japan 2017>日本演唱会.中元铃 视频剧情截图
Babymetal<The Fox Festivals In Japan 2017>日本演唱会.中元铃 演唱会曲目介绍
lgych-00494 Babymetal The Fox Festivals In Japan 2017 日本演唱会.中元铃香.水野由结.菊地最爱【97.7G】1080P蓝光原盘.六碟

演唱会曲目

THE FIVE FOX FESTIVAL IN JAPAN
BLACK FOX FESTIVAL
July 18th, 2017 at AKASAKA BLITZ

01.BABYMETAL DEATH
02.META メタ太郎
03.Catch me if you can
04.悪夢の輪舞曲
05.Sis. Anger
06.メギツネ
07.ギミチョコ
08.ド キ ド キ☆モーニング
09.ヘドバンギャー
10.イジメ、ダメ、ゼッタイ

THE FIVE FOX FESTIVAL IN JAPAN
RED FOX FESTIVAL
July 19th, 2017 at AKASAKA BLITZ

01.BABYMETAL DEATH
02.ヤバッ
03.あわだまフィーバー
04.紅月 - アカツキ
05.4の歌
06.メギツネ
07.ギミチョコ
08.ド キ ド キ☆モーニング
09.ヘドバンギャー
10.Road of Resistance

THE FIVE FOX FESTIVAL IN JAPAN
GOLD FOX FESTIVAL
July 20th, 2017 at AKASAKA BLITZ

01.BABYMETAL DEATH
02.メギツネ
03.Catch me if you can
04.Amore - 蒼星 -
05.GJ!
06.ウ キ ウ キ ミッドナイト
07.ヘドバンギャー
08.ギミチョコ
09.KARATE
10.Road of Resistance

THE FIVE FOX FESTIVAL IN JAPAN
SILVER FOX FESTIVAL
July 25th, 2017 at Zepp DiverCity TOKYO

01.BABYMETAL DEATH
02.メギツネ
03.あわだまフィーバー
04.ヤバッ
05.ド キ ド キ☆モーニング
06.Road of Resistance
07.ギミチョコ
08.KARATE
09.ヘドバンギャー
10.THE ONE English ver.

THE FIVE FOX FESTIVAL IN JAPAN
WHITE FOX FESTIVAL
July 26th, 2017 at Zepp DiverCity TOKYO

01.BABYMETAL DEATH
02.META メタ太郎
03.Catch me if you can
04.Amore - 蒼星 -
05.GJ!
06.シンコペーション
07.メギツネ
08.ギミチョコ
09.イジメ ダメ ゼッタイ
10.Road of Resistance

BIG FOX FESTIVAL in JAPAN

October 15th, 2017 at OSAKA-JO HALL
01.BABYMETAL DEATH
02.ギミチョコ
03.メギツネ
04.ヤバッ
05.紅月 - アカツキ -
06.GJ
07.シンコペーション
08.META!メタ太郎
09.イジメ ダメ ゼッタイ
10.KARATE
11.ヘドバンギャー
12.Road of Resistance
13.THE ONE - English ver.
主音唯一码
lgych-00494
文件大小
97.7G
百度网盘下载
提取码
yh9j
文件解压密码
Babymetal<The Fox Festivals In Japan 2017>日本演唱会.中元铃 演唱会视频参数信息
演唱会参数信息

DISC INFO:

Disc Title:     lgych-00494 Babymetal The Fox Festivals In Japan 2017 日本演唱会.中元铃香.水野由结.菊地最爱【97.7G】1080P蓝光原盘.六碟
Disc Size:      21,651,611,077 bytes
Protection:     AACS
BD-Java:        No
BDInfo:         0.5.8

PLAYLIST REPORT:

Name:                   00001.MPLS
Length:                 1:18:37.713 (h:m:s.ms)
Size:                   0 bytes
Total Bitrate:          0.00 Mbps

VIDEO:

Codec                   Bitrate             Description     
-----                   -------             -----------     
MPEG-4 AVC Video        0 kbps              1080i / 29.970 fps / 16:9 / High Profile 4.1

AUDIO:

Codec                           Language        Bitrate         Description     
-----                           --------        -------         -----------     
LPCM Audio                      Japanese        2304 kbps       2.0 / 48 kHz / 2304 kbps / 24-bit

FILES:

Name            Time In         Length          Size            Total Bitrate   
----            -------         ------          ----            -------------   
00003.M2TS      0:00:00.000     1:18:22.698     0               0               
00006.M2TS      1:18:22.698     0:00:09.009     0               0               
00013.M2TS      1:18:31.707     0:00:06.006     0               0               
为您推荐 Babymetal,中元铃香,水野由结,菊地最爱 相关的演唱会视频
主音唯一码
lgych-00494
文件大小
97.7G
百度网盘下载
提取码
yh9j
文件解压密码
最新天气预报