> 生物股长<Ikimonogakari no Minasan Konni Tour 2010 Nandemo Ar
歌 手 : 生物股长,吉冈圣惠,水野良树,山下穗尊,Ikimonogakari
主音唯一码 : lgych-00497
视频大小 : 43.7G主音网微信 : zhuyinwang01
创建时间 : 2018-09-10主音网QQ客服 :2305540263
视频目录 : 日本演唱会
主音网邮箱 :bimuyu#zhuyin.com(请把#改成@)
主音唯一码
lgych-00497
文件大小
43.7G
百度网盘下载
提取码
7zq5
文件解压密码
生物股长<Ikimonogakari no Minasan Konni Tour 2010 Nandemo Ar 视频截图














生物股长<Ikimonogakari no Minasan Konni Tour 2010 Nandemo Ar 视频剧情截图
生物股长<Ikimonogakari no Minasan Konni Tour 2010 Nandemo Ar 演唱会曲目介绍
lgych-00497 生物股长 Ikimonogakari no Minasan Konni Tour 2010 Nandemo Arena 横滨演唱会【43.7G】1080P蓝光原盘

演唱会曲目: 

01. Opening
02. 花は桜 君は美し
03. 気まぐれロマンティック
04. キミがいる(萤之光主題曲)
05. コイスルオトメ
06. なくもんか
07. Happy Smile Again
08. 青春ライン
09. 月とあたしと冷蔵库
10. SAKURA
11. 雪やまぬ夜二人
12. 今走り出せば
13. Overture
14. くちづけ
15. YELL
16. 夏 コイ
17. Interlude
18. ブルーバード
19. ホットミルク
20. じょいふる
21. KIRA KIRA TRAIN
22. タユムコトナキナガレノナカデ
-Encore-
23. 风と未来
24. ありがとう
25. 帰りたくなったよ
主音唯一码
lgych-00497
文件大小
43.7G
百度网盘下载
提取码
7zq5
文件解压密码
生物股长<Ikimonogakari no Minasan Konni Tour 2010 Nandemo Ar 演唱会视频参数信息
演唱会参数信息

DISC INFO:

Disc Title:     lgych-00497 生物股长 Ikimonogakari no Minasan Konni Tour 2010 Nandemo Arena 横滨演唱会【43.7G】1080P蓝光原盘
Disc Size:      46,930,532,372 bytes
Protection:     AACS
BD-Java:        No
BDInfo:         0.5.8

PLAYLIST REPORT:

Name:                   00001.MPLS
Length:                 2:38:16.286 (h:m:s.ms)
Size:                   0 bytes
Total Bitrate:          0.00 Mbps

VIDEO:

Codec                   Bitrate             Description     
-----                   -------             -----------     
MPEG-4 AVC Video        0 kbps              1080i / 29.970 fps / 16:9 / High Profile 4.1

AUDIO:

Codec                           Language        Bitrate         Description     
-----                           --------        -------         -----------     
LPCM Audio                      Japanese        2304 kbps       2.0 / 48 kHz / 2304 kbps / 24-bit

FILES:

Name            Time In         Length          Size            Total Bitrate   
----            -------         ------          ----            -------------   
00006.M2TS      0:00:00.000     1:03:56.632     0               0               
00004.M2TS      1:03:56.632     1:05:14.911     0               0               
00000.M2TS      2:09:11.543     0:28:55.734     0               0               
00014.M2TS      2:38:07.277     0:00:09.009     0               0               
为您推荐 生物股长,吉冈圣惠,水野良树,山下穗尊,Ikimonogakari 相关的演唱会视频
主音唯一码
lgych-00497
文件大小
43.7G
百度网盘下载
提取码
7zq5
文件解压密码
最新天气预报