> 竹村桐子<Kyary Pamyu Pamyu KPP MV01>高清蓝光MV精选合集2015【
歌 手 : 竹村桐子
主音唯一码 : lgych-00500
视频大小 : 22.8G主音网微信 : zhuyinwang01
创建时间 : 2018-09-10主音网QQ客服 :2305540263
视频目录 : 日本演唱会
主音网邮箱 :bimuyu#zhuyin.com(请把#改成@)
主音唯一码
lgych-00500
文件大小
22.8G
百度网盘下载
提取码
p72f
文件解压密码
竹村桐子<Kyary Pamyu Pamyu KPP MV01>高清蓝光MV精选合集2015【 视频截图












竹村桐子<Kyary Pamyu Pamyu KPP MV01>高清蓝光MV精选合集2015【 视频剧情截图
竹村桐子<Kyary Pamyu Pamyu KPP MV01>高清蓝光MV精选合集2015【 演唱会曲目介绍
lgych-00500 竹村桐子 Kyary Pamyu Pamyu KPP MV01 高清蓝光MV精选合集2015【22.8G】1080P蓝光原盘

演唱会曲目: 

1. PONPONPON
2. つけまつける
3. CANDY CANDY
4. ファッションモンスター
5. ふりそでーしょん
6. にんじゃりばんばん
7. インベーダーインベーダー
8. もったいないとらんど
9. ゆめのはじまりんりん
10. ファリミーパーティー
11. きらきらキラー
12. もんだいガール
13. Crazy Party Night ぱんぷきんの逆襲
14. チェリーボンボン
15. きゃりーANAN
16. 未公開シーン
主音唯一码
lgych-00500
文件大小
22.8G
百度网盘下载
提取码
p72f
文件解压密码
竹村桐子<Kyary Pamyu Pamyu KPP MV01>高清蓝光MV精选合集2015【 演唱会视频参数信息
演唱会参数信息

DISC INFO:

Disc Title:     lgych-00500 竹村桐子 Kyary Pamyu Pamyu KPP MV01 高清蓝光MV精选合集2015【22.8G】1080P蓝光原盘
Disc Size:      24,523,646,480 bytes
Protection:     AACS
BD-Java:        No
BDInfo:         0.5.8

PLAYLIST REPORT:

Name:                   00001.MPLS
Length:                 1:27:14.295 (h:m:s.ms)
Size:                   0 bytes
Total Bitrate:          0.00 Mbps

VIDEO:

Codec                   Bitrate             Description     
-----                   -------             -----------     
MPEG-4 AVC Video        0 kbps              1080i / 29.970 fps / 16:9 / High Profile 4.1

AUDIO:

Codec                           Language        Bitrate         Description     
-----                           --------        -------         -----------     
LPCM Audio                      Japanese        2304 kbps       2.0 / 48 kHz / 2304 kbps / 24-bit

FILES:

Name            Time In         Length          Size            Total Bitrate   
----            -------         ------          ----            -------------   
00002.M2TS      0:00:00.000     0:51:23.146     0               0               
00003.M2TS      0:51:23.146     0:35:42.140     0               0               
00004.M2TS      1:27:05.286     0:00:09.009     0               0               
为您推荐 竹村桐子 相关的演唱会视频
主音唯一码
lgych-00500
文件大小
22.8G
百度网盘下载
提取码
p72f
文件解压密码
最新天气预报