> SKE48组合<SKE48 Request Hour Setlist Best 50 2013>日本演唱会
歌 手 : SKE48,AKB48组合
主音唯一码 : lgych-00504
视频大小 : 96.2G主音网微信 : zhuyinwang01
创建时间 : 2018-09-10主音网QQ客服 :2305540263
视频目录 : 日本演唱会
主音网邮箱 :bimuyu#zhuyin.com(请把#改成@)
主音唯一码
lgych-00504
文件大小
96.2G
百度网盘下载
提取码
9pfe
文件解压密码
SKE48组合<SKE48 Request Hour Setlist Best 50 2013>日本演唱会 视频截图




















SKE48组合<SKE48 Request Hour Setlist Best 50 2013>日本演唱会 视频剧情截图
SKE48组合<SKE48 Request Hour Setlist Best 50 2013>日本演唱会 演唱会曲目介绍
lgych-00504 SKE48组合 SKE48 Request Hour Setlist Best 50 2013 日本演唱会【96.2G】1080P蓝光原盘.三碟

演唱会曲目: 

看截图
主音唯一码
lgych-00504
文件大小
96.2G
百度网盘下载
提取码
9pfe
文件解压密码
SKE48组合<SKE48 Request Hour Setlist Best 50 2013>日本演唱会 演唱会视频参数信息
演唱会参数信息

DISC INFO:

Disc Title:     lgych-00504 SKE48组合 SKE48 Request Hour Setlist Best 50 2013 日本演唱会【96.2G】1080P蓝光原盘.三碟
Disc Size:      42,164,543,634 bytes
Protection:     AACS
BD-Java:        No
BDInfo:         0.5.8

PLAYLIST REPORT:

Name:                   00001.MPLS
Length:                 2:23:56.194 (h:m:s.ms)
Size:                   0 bytes
Total Bitrate:          0.00 Mbps

VIDEO:

Codec                   Bitrate             Description     
-----                   -------             -----------     
MPEG-4 AVC Video        0 kbps              1080i / 29.970 fps / 16:9 / High Profile 4.1

AUDIO:

Codec                           Language        Bitrate         Description     
-----                           --------        -------         -----------     
LPCM Audio                      Japanese        2304 kbps       2.0 / 48 kHz / 2304 kbps / 24-bit
LPCM Audio                      Japanese        2304 kbps       2.0 / 48 kHz / 2304 kbps / 24-bit

FILES:

Name            Time In         Length          Size            Total Bitrate   
----            -------         ------          ----            -------------   
00002.M2TS      0:00:00.000     0:00:35.068     0               0               
00005.M2TS      0:00:35.068     0:51:28.919     0               0               
00007.M2TS      0:52:03.987     1:15:21.183     0               0               
00009.M2TS      2:07:25.170     0:16:31.023     0               0               
为您推荐 SKE48,AKB48组合 相关的演唱会视频
主音唯一码
lgych-00504
文件大小
96.2G
百度网盘下载
提取码
9pfe
文件解压密码
最新天气预报