> SKE48组合<松井玲奈毕业演唱会 2588 DAYS>日本演唱会【171G】108
歌 手 : SKE48,松井玲奈,AKB48组合
主音唯一码 : lgych-00505
视频大小 : 171G主音网微信 : zhuyinwang01
创建时间 : 2018-09-10主音网QQ客服 :不在接受qq咨询,有事找微信。说明来意。
视频目录 : 日本演唱会
主音网邮箱 :bimuyu#zhuyin.com(请把#改成@)
主音唯一码
lgych-00505
文件大小
171G
百度网盘下载
提取码
rdxv
文件解压密码
SKE48组合<松井玲奈毕业演唱会 2588 DAYS>日本演唱会【171G】108 视频截图






























SKE48组合<松井玲奈毕业演唱会 2588 DAYS>日本演唱会【171G】108 视频剧情截图
SKE48组合<松井玲奈毕业演唱会 2588 DAYS>日本演唱会【171G】108 演唱会曲目介绍
lgych-00505 SKE48组合 松井玲奈毕业演唱会 2588 DAYS 日本演唱会【171G】1080P蓝光原盘.六碟

演唱会曲目: 

D.1:2015.08.29 豊田スタジアム公演
D.2:2015.08.30 豊田スタジアム公演
D.3:特典映像「松井玲奈 劇場最終公演」
D.4:特典映像 SKE48メンバー70名からの卒業メッセージ
D.5:特典映像 松井玲奈推しカメラ
D.6:メイキング
主音唯一码
lgych-00505
文件大小
171G
百度网盘下载
提取码
rdxv
文件解压密码
SKE48组合<松井玲奈毕业演唱会 2588 DAYS>日本演唱会【171G】108 演唱会视频参数信息
演唱会参数信息

DISC INFO:

Disc Title:     lgych-00505 SKE48组合 松井玲奈毕业演唱会 2588 DAYS 日本演唱会【171G】1080P蓝光原盘.六碟
Disc Size:      42,465,569,680 bytes
Protection:     AACS
BD-Java:        No
BDInfo:         0.5.8

PLAYLIST REPORT:

Name:                   00001.MPLS
Length:                 3:12:44.678 (h:m:s.ms)
Size:                   0 bytes
Total Bitrate:          0.00 Mbps

VIDEO:

Codec                   Bitrate             Description     
-----                   -------             -----------     
MPEG-4 AVC Video        0 kbps              1080p / 23.976 fps / 16:9 / High Profile 4.1

AUDIO:

Codec                           Language        Bitrate         Description     
-----                           --------        -------         -----------     
LPCM Audio                      Japanese        2304 kbps       2.0 / 48 kHz / 2304 kbps / 24-bit

FILES:

Name            Time In         Length          Size            Total Bitrate   
----            -------         ------          ----            -------------   
00003.M2TS      0:00:00.000     0:01:05.106     0               0               
00001.M2TS      0:01:05.106     1:47:08.463     0               0               
00002.M2TS      1:48:13.570     1:24:31.107     0               0               
为您推荐 SKE48,松井玲奈,AKB48组合 相关的演唱会视频
主音唯一码
lgych-00505
文件大小
171G
百度网盘下载
提取码
rdxv
文件解压密码
最新天气预报