> SKE48组合<SKE党崛起集会 来箱推吧>日本神户+横滨演唱会2013-201
歌 手 : SKE48,AKB48组合
主音唯一码 : lgych-00506
视频大小 : 195G主音网微信 : zhuyinwang01
创建时间 : 2018-09-10主音网QQ客服 :不在接受qq咨询,有事找微信。说明来意。
视频目录 : 日本演唱会
主音网邮箱 :bimuyu#zhuyin.com(请把#改成@)
主音唯一码
lgych-00506
文件大小
195G
百度网盘下载
提取码
rvyk
文件解压密码
SKE48组合<SKE党崛起集会 来箱推吧>日本神户+横滨演唱会2013-201 视频截图


























SKE48组合<SKE党崛起集会 来箱推吧>日本神户+横滨演唱会2013-201 视频剧情截图
SKE48组合<SKE党崛起集会 来箱推吧>日本神户+横滨演唱会2013-201 演唱会曲目介绍
lgych-00506 SKE48组合 SKE党崛起集会 来箱推吧 日本神户+横滨演唱会2013-2014【195G】1080P蓝光原盘.五碟

演唱会曲目: 

D.1

神戸ワールド記念ホール
2013.10.26(夜公演)

OA. マツムラブ!
01. overture (SKE48 ver.)
02. 兆し
03. ピノキオ軍
04. バンザイVenus
05. パレオはエメラルド
06. Blue rose
07. 青空片想い
08. ごめんね、SUMMER
09. 雨のピアニスト
10. ウィンブルドンへ連れて行って
11. 抱きしめられたら
12. 嘘つきなダチョウ
13. Nice to meet you !
14. 強がり時計
15. クロス
16. 狼とプライド
17. 女の子の第六感
18. フィンランド?ミラクル
19. 思い出以上
20. チョコの行方
21. Glory days
22. わがままな流れ星
23. 2人だけのパレード
24. チームKII推し
25. JYURI-JYURI BABY
26. 彼女になれますか?
27. シャララなカレンダー
28. BINGO!
29. 夕立の前
30. 片想いFinally
31. アイシテラブル!
32. キスだって左利き
33. チョコの奴隷
34. 美しい稲妻
35. そばにいさせて

EN01. 賛成カワイイ!
EN02. バズーカ砲発射!
EN03. オキドキ
EN04. 仲間の歌


D.2

横浜アリーナ
2013.12.06

01. overture (SKE48 ver.)
02. 孤独なバレリーナ
03. パレオはエメラルド
04. 手をつなぎながら
05. バンザイVenus
06. Glory days
07. 涙の湘南
08. 心の端のソファー
09. 雨のピアニスト
10. 逆転王子様
11. 僕とジュリエットとジェットコースター
12. 初恋よ こんにちは
13. クロス
14. 制服レジスタンス
15. キャンディー
16. 石榴(ざくろ)の実は憂鬱が何粒詰まっている?
17. カナリアシンドローム
18. いつのまにか、弱い者いじめ
19. 誰かのせいにはしない
20. 青春は恥ずかしい
21. はにかみロリーポップ
22. ときめきの足跡
23. 僕の太陽
24. 僕たちの紙飛行機
25. 僕らの風
26. みつばちガール
27. 校庭の仔犬
28. ウッホウッホホ
29. 嘘つきなダチョウ
30. 積み木の時間
31. アンテナ
32. ごめんね、SUMMER
33. アイシテラブル!
34. キスだって左利き
35. 1!2!3!4! ヨロシク!
36. チョコの奴隷
37. 美しい稲妻
38. 賛成カワイイ!

EN01. Escape
EN02. バズーカ砲発射!
EN03. オキドキ
EN04. 仲間の歌

D.3

ナゴヤドーム
2014.02.01

01. overture (SKE48 ver.)
02. 神々の領域
03. 賛成カワイイ!
04. 強き者よ
05. 青空片想い
06. ごめんね、SUMMER
07. 1!2!3!4! ヨロシク!
08. 誰かのせいにはしない
09. パパは嫌い
10. バズーカ砲発射!
11. 寡黙な月
12. ハレーション
13. キスだって左利き
14. 追いかけShadow
15. 青春の水しぶき
16. いつのまにか、弱い者いじめ
17. 道は なぜ続くのか?
18. それでも好きだよ
19. 心の端のソファー
20. 枯葉のステーション
21. ウィンブルドンへ連れて行って
22. RUN RUN RUN
23. Glory days
24. 雨のピアニスト
25. Darkness
26. 強がり時計
27. 大声ダイヤモンド
28. 鈴懸(すずかけ)の木の道で「君の微笑みを夢に見る」と言ってしまったら僕たちの関係はどう変わってしまうのか、僕なりに何日か考えた上でのやや気恥ずかしい結論のようなもの
29. ジェラシーのアリバイ
30. マンゴー No.2
31. JESUS
32. ボウリング願望
33. 海を渡れ!
34. 必殺テレポート
35. 美しい稲妻
36. アイシテラブル!
37. バンザイVenus
38. オキドキ
39. ピノキオ軍
40. パレオはエメラルド
41. 仲間の歌

EN01. チャイムはLOVE SONG
EN02. 握手の愛
EN03. チョコの奴隷
EN04. 手をつなぎながら

D.4

ナゴヤドーム
2014.02.02 

01. overture (SKE48 ver.)
02. Escape
03. 強き者よ
04. 青空片想い
05. ごめんね、SUMMER
06. 1!2!3!4! ヨロシク!
07. 愛の数
08. 花火は終わらない
09. 微笑みのポジティブシンキング
10. 片想いFinally
11. あうんのキス
12. あっという間の少女
13. チョコの奴隷
14. スルー?ザ?ナイト
15. 賛成カワイイ!
16. マツムラブ!
17. クロス
18. 夜風の仕業
19. 向日葵
20. フィンランド?ミラクル
21. 思い出以上
22. 校庭の仔犬
23. 大声ダイヤモンド
24. おいでシャンプー
25. カモネギックス
26. 10年桜
27. メロンジュース
28. 狼とプライド
29. 嵐の夜には
30. アイドルなんて呼ばないで
31. 奇跡は間に合わない
32. GALAXY of DREAMS
33. ウイニングボール
34. 美しい稲妻
35. アイシテラブル!
36. バンザイVenus
37. オキドキ
38. ピノキオ軍
39. パレオはエメラルド
40. 仲間の歌

EN01. 賛成カワイイ!
EN02. チャイムはLOVE SONG
EN03. 握手の愛
EN04. 手をつなぎながら
EN05. SKE48
主音唯一码
lgych-00506
文件大小
195G
百度网盘下载
提取码
rvyk
文件解压密码
SKE48组合<SKE党崛起集会 来箱推吧>日本神户+横滨演唱会2013-201 演唱会视频参数信息
演唱会参数信息

DISC INFO:

Disc Title:     lgych-00506 SKE48组合 SKE党崛起集会 来箱推吧 日本神户+横滨演唱会2013-2014【195G】1080P蓝光原盘.五碟
Disc Size:      45,804,668,542 bytes
Protection:     AACS
BD-Java:        No
BDInfo:         0.5.8

PLAYLIST REPORT:

Name:                   00001.MPLS
Length:                 3:27:28.536 (h:m:s.ms)
Size:                   0 bytes
Total Bitrate:          0.00 Mbps

VIDEO:

Codec                   Bitrate             Description     
-----                   -------             -----------     
MPEG-4 AVC Video        0 kbps              1080i / 29.970 fps / 16:9 / High Profile 4.1

AUDIO:

Codec                           Language        Bitrate         Description     
-----                           --------        -------         -----------     
LPCM Audio                      Japanese        2304 kbps       2.0 / 48 kHz / 2304 kbps / 24-bit

FILES:

Name            Time In         Length          Size            Total Bitrate   
----            -------         ------          ----            -------------   
00001.M2TS      0:00:00.000     0:00:35.068     0               0               
00002.M2TS      0:00:35.068     1:37:18.866     0               0               
00003.M2TS      1:37:53.934     1:49:34.601     0               0               
为您推荐 SKE48,AKB48组合 相关的演唱会视频
主音唯一码
lgych-00506
文件大小
195G
百度网盘下载
提取码
rvyk
文件解压密码
最新天气预报