> 早安家族<Hello! Project - Petit Best 17>高清蓝光MV精选合集20
歌 手 : Berryz工房,早安家族,早安少女组,℃-ute,Juice=Juice
主音唯一码 : lgych-00508
视频大小 : 22.2G主音网微信 : zhuyinwang01
创建时间 : 2018-09-10主音网QQ客服 :2305540263
视频目录 : 日本演唱会
主音网邮箱 :bimuyu#zhuyin.com(请把#改成@)
主音唯一码
lgych-00508
文件大小
22.2G
百度网盘下载
提取码
zn4s
文件解压密码
早安家族<Hello! Project - Petit Best 17>高清蓝光MV精选合集20 视频截图
















早安家族<Hello! Project - Petit Best 17>高清蓝光MV精选合集20 视频剧情截图
早安家族<Hello! Project - Petit Best 17>高清蓝光MV精选合集20 演唱会曲目介绍
lgych-00508 早安家族 Hello! Project - Petit Best 17 高清蓝光MV精选合集2016【22.2G】1080P蓝光原盘

演唱会曲目

01. 人生はSTEP   -  ℃-ute 
02. 泡沫サタデーナイト    -  早安少女组 '16 
03. 次々続々  -  アンジュルム ANGERME 
04. カラダだけが大人になったんじゃない  -  Juice=Juice 
05. ブギヴギLOVE  -  カントリー ガールズ Country Girls 
06. 桜ナイトフィーバー     -    こぶしファクトリー Kobushi Factory
07. チョット愚直に  猪突猛進  -  こぶしファクトリー Kobushi Factory
08. 独り占め  -  つばきファクトリー Tsubaki Factory
09. ソラシド ねえねえ   -  Buono! 
10. ロックの聖地  -  Buono! 
11. Next is you    -  NEXT YOU

特典映像
 
01. 人生はSTEP (Dance Shot Ver.)  -  ℃-ute 
02. 泡沫サタデーナイト  (Close-up Ver.)  -  早安少女组 '16 
03. 糸島Distance(Another Ver.)  -  アンジュルム ANGERME 
04. カラダだけが大人になったんじゃない(Close-up Ver.)  -  Juice=Juice 
05. ランラルン あなたに夢中 (Close-up Ver.)  -  カントリー ガールズ Country Girls
06. バッチ来い青春  (Dance Shot Ver.)  -  こぶしファクトリー Kobushi Factory 
07. ソラシド~ねえねえ~(Close-up Ver.)  -  Buono! 
08. Next is you!(Close-up Ver.)  -  NEXT YOU
主音唯一码
lgych-00508
文件大小
22.2G
百度网盘下载
提取码
zn4s
文件解压密码
早安家族<Hello! Project - Petit Best 17>高清蓝光MV精选合集20 演唱会视频参数信息
演唱会参数信息

DISC INFO:

Disc Title:     lgych-00508 早安家族 Hello! Project - Petit Best 17 高清蓝光MV精选合集2016【22.2G】1080P蓝光原盘
Disc Size:      23,932,112,147 bytes
Protection:     AACS
BD-Java:        No
BDInfo:         0.5.8

PLAYLIST REPORT:

Name:                   00000.MPLS
Length:                 0:59:04.007 (h:m:s.ms)
Size:                   0 bytes
Total Bitrate:          0.00 Mbps

VIDEO:

Codec                   Bitrate             Description     
-----                   -------             -----------     
MPEG-4 AVC Video        0 kbps              1080i / 29.970 fps / 16:9 / High Profile 4.1

AUDIO:

Codec                           Language        Bitrate         Description     
-----                           --------        -------         -----------     
LPCM Audio                      Japanese        2304 kbps       2.0 / 48 kHz / 2304 kbps / 24-bit

FILES:

Name            Time In         Length          Size            Total Bitrate   
----            -------         ------          ----            -------------   
00004.M2TS      0:00:00.000     0:06:10.803     0               0               
00005.M2TS      0:06:10.803     0:05:04.804     0               0               
00006.M2TS      0:11:15.608     0:06:05.498     0               0               
为您推荐 Berryz工房,早安家族,早安少女组,℃-ute,Juice=Juice 相关的演唱会视频
主音唯一码
lgych-00508
文件大小
22.2G
百度网盘下载
提取码
zn4s
文件解压密码
最新天气预报