> Berryz工房10周年纪念<Thank You Berikyuu>武道馆演唱会.后篇201
歌 手 : Berryz工房,早安家族,℃-ute
主音唯一码 : lgych-00512
视频大小 : 22.3G主音网微信 : zhuyinwang01
创建时间 : 2018-09-10主音网QQ客服 :2305540263
视频目录 : 日本演唱会
主音网邮箱 :bimuyu#zhuyin.com(请把#改成@)
主音唯一码
lgych-00512
文件大小
22.3G
百度网盘下载
提取码
t95x
文件解压密码
Berryz工房10周年纪念<Thank You Berikyuu>武道馆演唱会.后篇201 视频截图
















Berryz工房10周年纪念<Thank You Berikyuu>武道馆演唱会.后篇201 视频剧情截图
Berryz工房10周年纪念<Thank You Berikyuu>武道馆演唱会.后篇201 演唱会曲目介绍
lgych-00512 Berryz工房10周年纪念 Thank You Berikyuu 武道馆演唱会.后篇2014.℃-ute【22.3G】1080P蓝光原盘

演唱会曲目

1. OPENING
2. 愛はいつも君の中に

4. ああ、夜が明ける
5. ゴールデン チャイナタウン
6. 超HAPPY SONG

8. The Power
9. WANT!

11. ハレーション サマー
12. TODAY IS MY BIRTHDAY
13. 付き合ってるのに片思い

15. 「恋したい新党」
16. ロックの神様
17. Password is 0
18. MADAYADE

20. 胸騒ぎスカーレット
21. 世の中薔薇色
22. 普通、アイドル10年やってらんないでしょ!?
23. スッペシャル ジェネレ~ション
24. ジンギスカン
25. 本気ボンバー!!
26. cha cha SING

28. ライバル
29. 一丁目ロック!
30. Be 元気<成せば成るっ!> 〔ENCORE〕

32. 友情 純情 oh 青春 〔ENCORE〕
33. ENDING
34. ℃-uteの日スペシャルコンサート2014 Thank you ベリキュー!in 日本武道館 前編 ダイジェスト映像
主音唯一码
lgych-00512
文件大小
22.3G
百度网盘下载
提取码
t95x
文件解压密码
Berryz工房10周年纪念<Thank You Berikyuu>武道馆演唱会.后篇201 演唱会视频参数信息
演唱会参数信息

DISC INFO:

Disc Title:     lgych-00512 Berryz工房10周年纪念 Thank You Berikyuu 武道馆演唱会.后篇2014.℃-ute【22.3G】1080P蓝光原盘
Disc Size:      23,977,146,376 bytes
Protection:     AACS
BD-Java:        No
BDInfo:         0.5.8

PLAYLIST REPORT:

Name:                   00000.MPLS
Length:                 1:53:36.643 (h:m:s.ms)
Size:                   0 bytes
Total Bitrate:          0.00 Mbps

VIDEO:

Codec                   Bitrate             Description     
-----                   -------             -----------     
MPEG-4 AVC Video        0 kbps              1080i / 29.970 fps / 16:9 / High Profile 4.1

AUDIO:

Codec                           Language        Bitrate         Description     
-----                           --------        -------         -----------     
LPCM Audio                      Japanese        1536 kbps       2.0 / 48 kHz / 1536 kbps / 16-bit

FILES:

Name            Time In         Length          Size            Total Bitrate   
----            -------         ------          ----            -------------   
00003.M2TS      0:00:00.000     1:49:04.871     0               0               
00005.M2TS      1:49:04.871     0:04:31.271     0               0               
00006.M2TS      1:53:36.142     0:00:00.500     0               0               
为您推荐 Berryz工房,早安家族,℃-ute 相关的演唱会视频
主音唯一码
lgych-00512
文件大小
22.3G
百度网盘下载
提取码
t95x
文件解压密码
最新天气预报