> Berryz工房<完熟 Berryz工房 The Final Completion Box>高清蓝光
歌 手 : Berryz工房,早安家族
主音唯一码 : lgych-00515
视频大小 : 65.9G主音网微信 : zhuyinwang01
创建时间 : 2018-09-10主音网QQ客服 :2305540263
视频目录 : 日本演唱会
主音网邮箱 :bimuyu#zhuyin.com(请把#改成@)
主音唯一码
lgych-00515
文件大小
65.9G
百度网盘下载
提取码
pp6q
文件解压密码
Berryz工房<完熟 Berryz工房 The Final Completion Box>高清蓝光 视频截图






















Berryz工房<完熟 Berryz工房 The Final Completion Box>高清蓝光 视频剧情截图
Berryz工房<完熟 Berryz工房 The Final Completion Box>高清蓝光 演唱会曲目介绍
lgych-00515 Berryz工房 完熟 Berryz工房 The Final Completion Box 高清蓝光MV精选合集2015【65.9G】1080P蓝光原盘.双碟

演唱会曲目

D.1

1. あなたなしでは生きてゆけない (MUSIC VIDEO)
2. ファイティングポーズはダテじゃない! (MUSIC VIDEO)
3. ピリリと行こう! (MUSIC VIDEO)
4. ハピネス ~幸福歓迎!~ (MUSIC VIDEO)
5. 恋の呪縛 (MUSIC VIDEO)
6. スッペシャル ジェネレ~ション (MUSIC VIDEO)
7. なんちゅう恋をやってるぅ YOU KNOW? (MUSIC VIDEO)
8. 21時までのシンデレラ (MUSIC VIDEO)
9. ギャグ100回分愛してください (MUSIC VIDEO)
10. ジリリ キテル (MUSIC VIDEO)
11. 笑っちゃおうよ BOYFRIEND (MUSIC VIDEO)
12. 胸さわぎスカーレット (MUSIC VIDEO)
13. VERY BEAUTY (MUSIC VIDEO)
14. 告白の噴水広場 (MUSIC VIDEO)
15. 付き合ってるのに片思い (MUSIC VIDEO)
16. ジンギスカン (MUSIC VIDEO)
17. 行け 行け モンキーダンス (MUSIC VIDEO)
18. MADAYADE (MUSIC VIDEO)
19. 抱きしめて 抱きしめて (MUSIC VIDEO)
20. 青春バスガイド (MUSIC VIDEO)
21. ライバル (MUSIC VIDEO)
22. 私の未来のだんな様 (MUSIC VIDEO)
23. 流星ボーイ (MUSIC VIDEO)
24. 雄叫びボーイ WAO! (MUSIC VIDEO)
25. 友達は友達なんだ! (MUSIC VIDEO)
26. 本気ボンバー!! (MUSIC VIDEO)
27. シャイニング パワー (MUSIC VIDEO)
28. ヒロインになろうか! (MUSIC VIDEO)
29. 愛の弾丸 (MUSIC VIDEO)
30. ああ、夜が明ける (MUSIC VIDEO)
31. Be 元気<成せば成るっ!> (MUSIC VIDEO)
32. cha cha SING (MUSIC VIDEO)
33. Loving you Too much (MUSIC VIDEO)
34. ももち!許してにゃん□体操 (MUSIC VIDEO)

D.2

1. WANT! (MUSIC VIDEO)
2. アジアン セレブレイション (MUSIC VIDEO)
3. ゴールデン チャイナタウン (MUSIC VIDEO)
4. サヨナラ ウソつきの私 (MUSIC VIDEO)
5. もっとずっと一緒に居たかった (MUSIC VIDEO)
6. ROCKエロティック (MUSIC VIDEO)
7. 大人なのよ! (MUSIC VIDEO)
8. 1億3千万総ダイエット王国 (MUSIC VIDEO)
9. 愛はいつも君の中に (MUSIC VIDEO)
10. 普通、アイドル10年やってらんないでしょ!? (MUSIC VIDEO)
11. ロマンスを語って (MUSIC VIDEO)
12. 永久の歌 (MUSIC VIDEO)
13. Love together! (MUSIC VIDEO)
14. 甘酸っぱい春にサクラサク (MUSIC VIDEO) (特典映像)
15. 超HAPPY SONG (MUSIC VIDEO) (特典映像)
16. WANT! (Close-up Ver.) (特典映像)
17. アジアン セレブレイション (Close-up Ver.) (特典映像)
18. ゴールデン チャイナタウン (Another Ver.) (特典映像)
19. サヨナラ ウソつきの私 (Dance Shot Ver.II) (特典映像)
20. もっとずっと一緒に居たかった (Another Ver.) (特典映像)
21. ROCKエロティック (Close-up Ver.) (特典映像)
22. 大人なのよ! (Dance Shot Ver.II) (特典映像)
23. 1億3千万総ダイエット王国 (Dance Shot Ver.II) (特典映像)
24. 愛はいつも君の中に (Close-up Ver.) (特典映像)
25. 普通、アイドル10年やってらんないでしょ!? (Close-up Ver.) (特典映像)
26. ロマンスを語って (Close-up Ver.) (特典映像)
27. 永久の歌 (Close-up Ver.) (特典映像)
28. アルバムジャケット撮影メイキング (特典映像)
主音唯一码
lgych-00515
文件大小
65.9G
百度网盘下载
提取码
pp6q
文件解压密码
Berryz工房<完熟 Berryz工房 The Final Completion Box>高清蓝光 演唱会视频参数信息
演唱会参数信息

DISC INFO:

Disc Title:     lgych-00515 Berryz工房 完熟 Berryz工房 The Final Completion Box 高清蓝光MV精选合集2015【65.9G】1080P蓝光原盘.双碟
Disc Size:      35,296,596,719 bytes
Protection:     AACS
BD-Java:        No
BDInfo:         0.5.8

PLAYLIST REPORT:

Name:                   00001.MPLS
Length:                 2:19:29.327 (h:m:s.ms)
Size:                   0 bytes
Total Bitrate:          0.00 Mbps

VIDEO:

Codec                   Bitrate             Description     
-----                   -------             -----------     
MPEG-4 AVC Video        0 kbps              1080i / 29.970 fps / 16:9 / High Profile 4.1

AUDIO:

Codec                           Language        Bitrate         Description     
-----                           --------        -------         -----------     
LPCM Audio                      Japanese        1536 kbps       2.0 / 48 kHz / 1536 kbps / 16-bit
LPCM Audio                      Japanese        1536 kbps       2.0 / 48 kHz / 1536 kbps / 16-bit

FILES:

Name            Time In         Length          Size            Total Bitrate   
----            -------         ------          ----            -------------   
00000.M2TS      0:00:00.000     0:04:12.118     0               0               
00001.M2TS      0:04:12.118     0:03:38.184     0               0               
00002.M2TS      0:07:50.303     0:03:45.191     0               0               
为您推荐 Berryz工房,早安家族 相关的演唱会视频
主音唯一码
lgych-00515
文件大小
65.9G
百度网盘下载
提取码
pp6q
文件解压密码
最新天气预报