> One Ok Rock组合<人生×君=>日本巡回演唱会+纪录片2013【60G】10
歌 手 : One Ok Rock,森内贵宽,Taka,山下亨,小浜良太,神吉智也
主音唯一码 : lgych-00518
视频大小 : 60G主音网微信 : zhuyinwang01
创建时间 : 2018-09-10主音网QQ客服 :不在接受qq咨询,有事找微信。说明来意。
视频目录 : 日本演唱会
主音网邮箱 :bimuyu#zhuyin.com(请把#改成@)
主音唯一码
lgych-00518
文件大小
60G
百度网盘下载
提取码
81ep
文件解压密码
One Ok Rock组合<人生×君=>日本巡回演唱会+纪录片2013【60G】10 视频截图
















One Ok Rock组合<人生×君=>日本巡回演唱会+纪录片2013【60G】10 视频剧情截图
One Ok Rock组合<人生×君=>日本巡回演唱会+纪录片2013【60G】10 演唱会曲目介绍
lgych-00518 One Ok Rock组合 人生×君= 日本巡回演唱会+纪录片2013【60G】1080P蓝光原盘.双碟

演唱会曲目

01. Ending Story??
02. Deeper Deeper
03. Nothing Helps
04. カラス
05. アンサイズニア
06. C.h.a.o.s.m.y.t.h.
07. Let's take it someday
08. 未完成交響曲
09. じぶんROCK
10. Clock Strikes
11. Wherever you are
12. All Mine
13. Inst
14. Liar
15. Be the light
16. ONION!
17. 69
18. Juvenile
19. Re:make
20. 完全感覚Dreamer
21. The Beginning

EN1. Nobody's Home
EN2. the same as…
主音唯一码
lgych-00518
文件大小
60G
百度网盘下载
提取码
81ep
文件解压密码
One Ok Rock组合<人生×君=>日本巡回演唱会+纪录片2013【60G】10 演唱会视频参数信息
演唱会参数信息

DISC INFO:

Disc Title:     lgych-00518 One Ok Rock组合 人生×君= 日本巡回演唱会+纪录片2013【60G】1080P蓝光原盘.双碟
Disc Size:      41,182,529,564 bytes
Protection:     AACS
BD-Java:        No
BDInfo:         0.5.8

PLAYLIST REPORT:

Name:                   00000.MPLS
Length:                 2:15:20.112 (h:m:s.ms)
Size:                   0 bytes
Total Bitrate:          0.00 Mbps

VIDEO:

Codec                   Bitrate             Description     
-----                   -------             -----------     
MPEG-4 AVC Video        0 kbps              1080i / 29.970 fps / 16:9 / High Profile 4.1

AUDIO:

Codec                           Language        Bitrate         Description     
-----                           --------        -------         -----------     
LPCM Audio                      Japanese        2304 kbps       2.0 / 48 kHz / 2304 kbps / 24-bit

FILES:

Name            Time In         Length          Size            Total Bitrate   
----            -------         ------          ----            -------------   
00000.M2TS      0:00:00.000     1:05:28.925     0               0               
00001.M2TS      1:05:28.925     1:09:36.172     0               0               
00002.M2TS      2:15:05.097     0:00:15.014     0               0               
为您推荐 One Ok Rock,森内贵宽,Taka,山下亨,小浜良太,神吉智也 相关的演唱会视频
主音唯一码
lgych-00518
文件大小
60G
百度网盘下载
提取码
81ep
文件解压密码
最新天气预报