> HKT48组合<让可爱的孩子去旅行吧>日本巡回演唱会2014【107G】108
歌 手 : HKT48,AKB48组合
主音唯一码 : lgych-00523
视频大小 : 107G主音网微信 : zhuyinwang01
创建时间 : 2018-09-10主音网QQ客服 :不在接受qq咨询,有事找微信。说明来意。
视频目录 : 日本演唱会
主音网邮箱 :bimuyu#zhuyin.com(请把#改成@)
主音唯一码
lgych-00523
文件大小
107G
百度网盘下载
提取码
jsgg
文件解压密码
HKT48组合<让可爱的孩子去旅行吧>日本巡回演唱会2014【107G】108 视频截图






















HKT48组合<让可爱的孩子去旅行吧>日本巡回演唱会2014【107G】108 视频剧情截图
HKT48组合<让可爱的孩子去旅行吧>日本巡回演唱会2014【107G】108 演唱会曲目介绍
lgych-00523 HKT48组合 让可爱的孩子去旅行吧 日本巡回演唱会2014【107G】1080P蓝光原盘.三碟

演唱会曲目

D.1
 
HKT48 アリーナツアー~可愛い子にはもっと旅をさせよ~ 海の中道海浜公園 本編

01.overture (HKT48 ver.)
02.青春ガールズ
03.HKT48
04.会いたかった
05.ビーチサンダル
06.ご機嫌ななめなマーメイド
07.君と虹と太陽と
08.桜、みんなで食べた
09.西瓜BABY
10.涙の湘南
11.ずっと 前から
12.リターンマッチ
13.向日葵
14.シェキナベイべー
15.生意気リップス
16.初恋バタフライ
17.お願いヴァレンティヌ
18.スキ!スキ!スキップ!
19.夏メドレー
ポニーテールとシュシュ
未来の果実
パレオはエメラルド
ナギイチ
ごめんね、SUMMER
Everyday、カチューシャ

D.2

2014.4.29 幕張メッセ[昼公演]会場ビジョン出し映像

01.overture (HKT48 ver.)
02.青春ガールズ
03.HKT48
04.会いたかった
05.既読スルー
06.昔の彼氏のお兄ちゃんとつき合うということ
07.ウインクは3回
08.桜、みんなで食べた
09.アイサレルトイウコト
10.覚えてください
11.波乗りかき氷
12.卒業写真
13.UFO
14.ピノキオ軍
15.ペディキュアday
16.キレイゴトでもいいじゃないか?
17.森へ行こう
18.毒リンゴを食べさせて
19.Show fight !
20.恋するフォーチュンクッキー
21.生意気リップス
22.スペシャルメドレー
UZA
GAGAGA
美しい稲妻
カモネギックス
ロマンス、イラネ
純情U-19
片想いFinally
RIVER
23.お願いヴァレンティヌ
24.初恋バタフライ
25.大声ダイヤモンド
26.ロックだよ、人生は…
27.明日は明日の君が生まれる
EN01. スキ!スキ!スキップ!
EN02. 君のことが好きやけん
EN03. メロンジュース

2014.4.29 幕張メッセ[夜公演]会場ビジョン出し映像

01.年下の男の子
02.夏色のナンシー
03.君について
04.ラッパ練習中
05.あゝ無情
主音唯一码
lgych-00523
文件大小
107G
百度网盘下载
提取码
jsgg
文件解压密码
HKT48组合<让可爱的孩子去旅行吧>日本巡回演唱会2014【107G】108 演唱会视频参数信息
演唱会参数信息

DISC INFO:

Disc Title:     lgych-00523 HKT48组合 让可爱的孩子去旅行吧 日本巡回演唱会2014【107G】1080P蓝光原盘.三碟
Disc Size:      43,164,975,608 bytes
Protection:     AACS
BD-Java:        No
BDInfo:         0.5.8

PLAYLIST REPORT:

Name:                   00002.MPLS
Length:                 3:12:21.296 (h:m:s.ms)
Size:                   0 bytes
Total Bitrate:          0.00 Mbps

VIDEO:

Codec                   Bitrate             Description     
-----                   -------             -----------     
MPEG-4 AVC Video        0 kbps              1080i / 29.970 fps / 16:9 / High Profile 4.1

AUDIO:

Codec                           Language        Bitrate         Description     
-----                           --------        -------         -----------     
LPCM Audio                      Japanese        2304 kbps       2.0 / 48 kHz / 2304 kbps / 24-bit

FILES:

Name            Time In         Length          Size            Total Bitrate   
----            -------         ------          ----            -------------   
00002.M2TS      0:00:00.000     0:00:40.073     0               0               
00003.M2TS      0:00:40.073     1:21:52.607     0               0               
00004.M2TS      1:22:32.681     1:49:48.615     0               0               
为您推荐 HKT48,AKB48组合 相关的演唱会视频
主音唯一码
lgych-00523
文件大小
107G
百度网盘下载
提取码
jsgg
文件解压密码
最新天气预报