> SKE48组合<SKE48 Request Hour Setlist Best 242 2014>乐曲年度
歌 手 : SKE48,AKB48组合,松井玲奈,松井珠理奈
主音唯一码 : lgych-00533
视频大小 : 178G主音网微信 : zhuyinwang01
创建时间 : 2018-09-10主音网QQ客服 :2305540263
视频目录 : 日本演唱会
主音网邮箱 :bimuyu#zhuyin.com(请把#改成@)
主音唯一码
lgych-00533
文件大小
178G
百度网盘下载
提取码
x9uy
文件解压密码
SKE48组合<SKE48 Request Hour Setlist Best 242 2014>乐曲年度 视频截图






























SKE48组合<SKE48 Request Hour Setlist Best 242 2014>乐曲年度 视频剧情截图
SKE48组合<SKE48 Request Hour Setlist Best 242 2014>乐曲年度 演唱会曲目介绍
lgych-00533 SKE48组合 SKE48 Request Hour Setlist Best 242 2014 乐曲年度选拔演唱会【178G】1080P蓝光原盘.五碟

演唱会曲目

D.1
昼公演 100位~76位+アンコール

D.2
夜公演 75位~51位+アンコール

D.3
昼公演 50位~26位+アンコール

D.4
夜公演 25位~1位+アンコール

D.5
Making of SKE48 REQUEST HOUR SETLIST BEST 242 2014
主音唯一码
lgych-00533
文件大小
178G
百度网盘下载
提取码
x9uy
文件解压密码
SKE48组合<SKE48 Request Hour Setlist Best 242 2014>乐曲年度 演唱会视频参数信息
演唱会参数信息

DISC INFO:

Disc Title:     lgych-00533 SKE48组合 SKE48 Request Hour Setlist Best 242 2014 乐曲年度选拔演唱会【178G】1080P蓝光原盘.五碟
Disc Size:      36,849,311,092 bytes
Protection:     AACS
BD-Java:        No
BDInfo:         0.5.8

PLAYLIST REPORT:

Name:                   00001.MPLS
Length:                 2:48:40.243 (h:m:s.ms)
Size:                   0 bytes
Total Bitrate:          0.00 Mbps

VIDEO:

Codec                   Bitrate             Description     
-----                   -------             -----------     
MPEG-4 AVC Video        0 kbps              1080i / 29.970 fps / 16:9 / High Profile 4.1

AUDIO:

Codec                           Language        Bitrate         Description     
-----                           --------        -------         -----------     
LPCM Audio                      Japanese        2304 kbps       2.0 / 48 kHz / 2304 kbps / 24-bit
LPCM Audio                      Japanese        1536 kbps       2.0 / 48 kHz / 1536 kbps / 16-bit

FILES:

Name            Time In         Length          Size            Total Bitrate   
----            -------         ------          ----            -------------   
00001.M2TS      0:00:00.000     0:00:43.076     0               0               
00002.M2TS      0:00:43.076     1:15:34.062     0               0               
00004.M2TS      1:16:17.139     1:17:52.200     0               0               
00006.M2TS      2:34:09.340     0:14:30.903     0               0               
为您推荐 SKE48,AKB48组合,松井玲奈,松井珠理奈 相关的演唱会视频
主音唯一码
lgych-00533
文件大小
178G
百度网盘下载
提取码
x9uy
文件解压密码
最新天气预报