> Babymetal<World Tour 2014 Live in London>伦敦演唱会.中元铃香
歌 手 : Babymetal,中元铃香,水野由结,菊地最爱
主音唯一码 : lgych-00547
视频大小 : 43.7G主音网微信 : zhuyinwang01
创建时间 : 2018-09-10主音网QQ客服 :不在接受qq咨询,有事找微信。说明来意。
视频目录 : 日本演唱会
主音网邮箱 :bimuyu#zhuyin.com(请把#改成@)
主音唯一码
lgych-00547
文件大小
43.7G
百度网盘下载
提取码
y96p
文件解压密码
Babymetal<World Tour 2014 Live in London>伦敦演唱会.中元铃香 视频截图


























Babymetal<World Tour 2014 Live in London>伦敦演唱会.中元铃香 视频剧情截图
Babymetal<World Tour 2014 Live in London>伦敦演唱会.中元铃香 演唱会曲目介绍
lgych-00547 Babymetal World Tour 2014 Live in London 伦敦演唱会.中元铃香.水野由结.菊地最爱【43.7G】1080P蓝光原盘 

演唱会曲目

Babymetal World Tour 2014 - 2014.07.07 at The Forum

1. BABYMETAL DEATH
2. いいね!
3. ウ キ ウ キ ミッドナイト
4. 悪夢の輪舞曲
5. おねだり大作戦
6. Catch me if you can
7. 紅月 -アカツキ-
8. 4の歌
9. メギツネ
10. ド キ ド キ モーニング
11. ギミチョコ!!
12. ヘドバンギャー!!
13. イジメ、ダメ、ゼッタイ

Babymetal BACK TO THE USA UK TOUR 2014 - 2014.11.08 at O2 Academy Brixton

14. BABYMETAL DEATH
15. いいね!
16. ウ キ ウ キ★ミッドナイト
17. 悪夢の輪舞曲
18. 4の歌
19. Catch me if you can
20. 紅月 -アカツキ-
21. おねだり大作戦
22. メギツネ
23. ド キ ド キ☆モーニング
24. ギミチョコ!!
25. イジメ、ダメ、ゼッタイ
26. ヘドバンギャー!!
27. Road of Resistance
主音唯一码
lgych-00547
文件大小
43.7G
百度网盘下载
提取码
y96p
文件解压密码
Babymetal<World Tour 2014 Live in London>伦敦演唱会.中元铃香 演唱会视频参数信息
演唱会参数信息

DISC INFO:

Disc Title:     lgych-00547 Babymetal World Tour 2014 Live in London 伦敦演唱会.中元铃香.水野由结.菊地最爱【43.7G】1080P蓝光原盘
Disc Size:      46,945,860,303 bytes
Protection:     AACS
BD-Java:        No
BDInfo:         0.5.8

PLAYLIST REPORT:

Name:                   00002.MPLS
Length:                 1:29:29.364 (h:m:s.ms)
Size:                   0 bytes
Total Bitrate:          0.00 Mbps

VIDEO:

Codec                   Bitrate             Description     
-----                   -------             -----------     
MPEG-4 AVC Video        0 kbps              1080p / 23.976 fps / 16:9 / High Profile 4.1

AUDIO:

Codec                           Language        Bitrate         Description     
-----                           --------        -------         -----------     
LPCM Audio                      Japanese        2304 kbps       2.0 / 48 kHz / 2304 kbps / 24-bit

FILES:

Name            Time In         Length          Size            Total Bitrate   
----            -------         ------          ----            -------------   
00004.M2TS      0:00:00.000     1:29:14.349     0               0               
00005.M2TS      1:29:14.349     0:00:09.009     0               0               
00006.M2TS      1:29:23.358     0:00:06.006     0               0               
为您推荐 Babymetal,中元铃香,水野由结,菊地最爱 相关的演唱会视频
主音唯一码
lgych-00547
文件大小
43.7G
百度网盘下载
提取码
y96p
文件解压密码
最新天气预报